<?xml version="1.0" standalone="no"?>
<!DOCTYPE svg PUBLIC "-//W3C//DTD SVG 1.1//EN" "http://www.w3.org/Graphics/SVG/1.1/DTD/svg11.dtd" >
<svg xmlns="http://www.w3.org/2000/svg" xmlns:xlink="http://www.w3.org/1999/xlink" version="1.1">
<metadata>
Created by FontForge 20170731 at Tue Aug 25 20:05:47 2020
 By Aleksey,,,
Copyright (c) 2012 by Jos Buivenga. All rights reserved.
</metadata>
<defs>
<font id="MuseoSansCyrl-100" horiz-adv-x="770" >
  <font-face 
    font-family="Museo Sans Cyrl 100"
    font-weight="250"
    font-stretch="normal"
    units-per-em="2048"
    panose-1="2 0 0 0 0 0 0 0 0 0"
    ascent="1536"
    descent="-512"
    x-height="1024"
    cap-height="1434"
    bbox="-233 -434 2228 1790"
    underline-thickness="102"
    underline-position="-307"
    unicode-range="U+0020-FB04"
  />
<missing-glyph horiz-adv-x="1044" 
d="M10 0v1434h1024v-1434h-1024zM522 809l348 522h-696zM584 717l348 -522v1044zM113 195l348 522l-348 522v-1044zM174 102h696l-348 523z" />
    <glyph glyph-name="f_f" unicode="ff" horiz-adv-x="1253" 
d="M209 0v946h-129v78h129v41q0 96 24.5 168.5t59 111.5t82 62.5t84 30t73.5 6.5q36 0 54 -4v-80q-12 4 -47 4q-29 0 -57 -5t-63.5 -24t-61.5 -49.5t-44 -87t-18 -131.5v-43h539v41q0 96 24.5 168.5t59 111.5t82 62.5t84 30t73.5 6.5q35 0 53 -4v-80q-12 4 -47 4
q-29 0 -57 -5t-63.5 -24t-61 -49.5t-43.5 -87t-18 -131.5v-43h280v-78h-280v-946h-86v946h-539v-946h-86z" />
    <glyph glyph-name="fi" unicode="fi" horiz-adv-x="1052" 
d="M209 0v946h-129v78h129v41q0 96 24.5 168.5t59 111.5t82 62.5t84 30t73.5 6.5q22 0 54 -4v-80q-16 4 -47 4q-29 0 -57 -5t-63.5 -24t-61.5 -49.5t-44 -87t-18 -131.5v-43h582v-1024h-86v946h-496v-946h-86zM782 1284v150h103v-150h-103z" />
    <glyph glyph-name="fl" unicode="fl" horiz-adv-x="1067" 
d="M209 0v940h-129v78h129v47q0 96 24.5 168.5t59 111.5t82 62.5t84 30t73.5 6.5q22 0 54 -4v-80q-16 4 -47 4q-29 0 -57 -5t-63.5 -24t-61.5 -49.5t-44 -87t-18 -131.5v-49h280v-78h-280v-940h-86zM780 207v1227h86v-1201q0 -159 121 -159q19 0 31 2v-80q-16 -4 -37 -4
q-22 0 -44 3.5t-52 17t-52 35.5t-37.5 63t-15.5 96z" />
    <glyph glyph-name="f_f_i" unicode="ffi" horiz-adv-x="1677" 
d="M209 0v946h-129v78h129v41q0 96 24.5 168.5t59 111.5t82 62.5t84 30t73.5 6.5q22 0 54 -4v-80q-16 4 -47 4q-29 0 -57 -5t-63.5 -24t-61.5 -49.5t-44 -87t-18 -131.5v-43h539v41q0 96 24.5 168.5t59 111.5t82 62.5t84 30t73.5 6.5q21 0 53 -4v-80q-16 4 -47 4
q-29 0 -57 -5t-63.5 -24t-61 -49.5t-43.5 -87t-18 -131.5v-43h581v-1024h-86v946h-495v-946h-86v946h-539v-946h-86zM1407 1284v150h102v-150h-102z" />
    <glyph glyph-name="f_f_l" unicode="ffl" horiz-adv-x="1691" 
d="M209 0v946h-129v78h129v41q0 96 24.5 168.5t59 111.5t82 62.5t84 30t73.5 6.5q22 0 54 -4v-80q-16 4 -47 4q-29 0 -57 -5t-63.5 -24t-61.5 -49.5t-44 -87t-18 -131.5v-43h539v41q0 96 24.5 168.5t59 111.5t82 62.5t84 30t73.5 6.5q21 0 53 -4v-80q-16 4 -47 4
q-29 0 -57 -5t-63.5 -24t-61 -49.5t-43.5 -87t-18 -131.5v-43h280v-78h-280v-946h-86v946h-539v-946h-86zM1405 207v1227h86v-1201q0 -159 121 -159q18 0 30 2v-80q-16 -4 -36 -4q-22 0 -44 3.5t-52 17t-52 35.5t-37.5 63t-15.5 96z" />
    <glyph glyph-name="f_j" unicode="fj" horiz-adv-x="1052" 
d="M209 0v946h-129v78h129v41q0 96 24.5 168.5t59 111.5t82 62.5t84 30t73.5 6.5q22 0 54 -4v-80q-16 4 -47 4q-29 0 -57 -5t-63.5 -24t-61.5 -49.5t-44 -87t-18 -131.5v-43h582v-1065q0 -97 -24.5 -169.5t-59.5 -111t-83 -62t-84.5 -30t-74.5 -6.5q-15 0 -51 4v80
q12 -4 45 -4q30 0 58 5t63.5 24t62 49.5t44.5 87t18 131.5v989h-496v-946h-86zM782 1284v150h103v-150h-103z" />
    <glyph glyph-name=".notdef" horiz-adv-x="1044" 
d="M10 0v1434h1024v-1434h-1024zM522 809l348 522h-696zM584 717l348 -522v1044zM113 195l348 522l-348 522v-1044zM174 102h696l-348 523z" />
    <glyph glyph-name=".null" horiz-adv-x="0" 
 />
    <glyph glyph-name="nonmarkingreturn" horiz-adv-x="682" 
 />
    <glyph glyph-name="space" unicode=" " horiz-adv-x="512" 
 />
    <glyph glyph-name="exclam" unicode="!" horiz-adv-x="512" 
d="M211 358v1076h88v-1076h-88zM197 0v125h120v-125h-120z" />
    <glyph glyph-name="quotedbl" unicode="&#x22;" horiz-adv-x="641" 
d="M383 1143v309h88v-309h-88zM170 1143v309h88v-309h-88z" />
    <glyph glyph-name="numbersign" unicode="#" horiz-adv-x="1497" 
d="M344 0l72 408h-312l15 81h311l80 453h-311l14 82h311l72 410h88l-72 -410h387l72 410h88l-72 -410h306l-15 -82h-305l-80 -453h305l-14 -81h-305l-72 -408h-88l72 408h-387l-72 -408h-88zM518 489h387l80 453h-387z" />
    <glyph glyph-name="dollar" unicode="$" horiz-adv-x="1146" 
d="M147 154l60 67q68 -72 172 -116t211 -44q136 0 227.5 78t91.5 205q0 80 -41 142.5t-106 102.5t-143.5 75.5t-157.5 72t-144 80.5t-106 112.5t-41 157.5q0 136 103.5 242.5t269.5 124.5v195h88v-193q202 -10 334 -131l-50 -76q-59 56 -143.5 89.5t-169.5 33.5
q-152 0 -246 -85.5t-94 -196.5q0 -75 41 -132t106 -95t143.5 -71.5t157.5 -71.5t144 -84t106 -119.5t41 -168.5q0 -149 -100.5 -253.5t-269.5 -117.5v-190h-88v190q-111 6 -216.5 52t-179.5 125z" />
    <glyph glyph-name="percent" unicode="%" horiz-adv-x="1425" 
d="M389 924q-110 0 -188 78t-78 188t78 189t188 79t189 -79t79 -189t-79 -188t-189 -78zM119 0l1087 1434h107l-1088 -1434h-106zM389 1006q76 0 128 53.5t52 130.5t-52 131.5t-128 54.5t-127 -54.5t-51 -131.5t51 -130.5t127 -53.5zM770 242q0 110 78 189t188 79t189.5 -79
t79.5 -189t-79.5 -188.5t-189.5 -78.5t-188 78.5t-78 188.5zM858 242q0 -77 51 -131t127 -54t128.5 54t52.5 131t-52.5 131.5t-128.5 54.5t-127 -54.5t-51 -131.5z" />
    <glyph glyph-name="ampersand" unicode="&#x26;" horiz-adv-x="1343" 
d="M131 391q0 132 71.5 241t198.5 144v4q-206 82 -206 322q0 158 111 257t306 99q70 0 152 -20l-29 -78q-70 16 -129 16q-138 0 -228.5 -74.5t-90.5 -197.5q0 -36 6 -69.5t28 -75.5t58 -72t102.5 -51t155.5 -21h334v209h88v-209h198v-82h-198v-229q0 -265 -122.5 -397
t-334.5 -132q-206 0 -338.5 118t-132.5 298zM223 395q0 -143 102 -238.5t277 -95.5q174 0 271.5 106t97.5 337v229h-330q-208 0 -313 -91t-105 -247z" />
    <glyph glyph-name="quotesingle" unicode="'" horiz-adv-x="428" 
d="M170 1143v309h88v-309h-88z" />
    <glyph glyph-name="parenleft" unicode="(" horiz-adv-x="540" 
d="M352 -195q-106 186 -165.5 415.5t-59.5 465.5q0 425 225 799h90q-231 -390 -231 -801q0 -476 231 -879h-90z" />
    <glyph glyph-name="parenright" unicode=")" horiz-adv-x="540" 
d="M98 -195q232 405 232 879q0 410 -232 801h90q226 -376 226 -799q0 -235 -60 -465t-166 -416h-90z" />
    <glyph glyph-name="asterisk" unicode="*" horiz-adv-x="1015" 
d="M315 705l-73 51l202 266v4l-319 96l27 86l317 -110l-10 336h96l-10 -336l319 108l29 -84l-322 -96v-4l201 -266l-72 -54l-190 275h-4z" />
    <glyph glyph-name="plus" unicode="+" horiz-adv-x="1146" 
d="M45 539v82h485v538h88v-538h484v-82h-484v-539h-88v539h-485z" />
    <glyph glyph-name="comma" unicode="," horiz-adv-x="518" 
d="M106 -193l109 318h115l-137 -318h-87z" />
    <glyph glyph-name="hyphen" unicode="-" horiz-adv-x="884" 
d="M160 539v82h565v-82h-565z" />
    <glyph glyph-name="period" unicode="." horiz-adv-x="444" 
d="M160 0v129h125v-129h-125z" />
    <glyph glyph-name="slash" unicode="/" horiz-adv-x="796" 
d="M94 -86l518 1602h90l-518 -1602h-90z" />
    <glyph glyph-name="zero" unicode="0" horiz-adv-x="1253" 
d="M627 -25q-133 0 -229 56.5t-150.5 160t-79.5 233t-25 292.5q0 129 15 236.5t50.5 202.5t90 160.5t138 103.5t190.5 38t190 -38t138 -103.5t90 -160.5t50 -202.5t15 -236.5t-15 -237t-50 -203.5t-90 -161t-138 -103t-190 -37.5zM627 61q111 0 189 49t121 141t62 205.5
t19 260.5q0 116 -11 210.5t-39 179t-71.5 142t-112 90.5t-157.5 33t-157.5 -33t-112 -90.5t-71.5 -142t-39 -179t-11 -210.5q0 -147 19 -260.5t62 -205.5t121 -141t189 -49z" />
    <glyph glyph-name="one" unicode="1" horiz-adv-x="925" 
d="M119 0v82h325v1167l2 72h-4q-14 -27 -75 -88l-170 -170l-62 59l309 312h88v-1352h318v-82h-731z" />
    <glyph glyph-name="two" unicode="2" horiz-adv-x="1136" 
d="M131 0q-6 40 -6 76q0 80 26 150.5t70.5 125.5t101.5 105t120.5 94t127 86.5t120.5 89t101.5 95.5t70.5 111.5t26 131.5q0 132 -91 219.5t-243 87.5q-105 0 -197.5 -56t-150.5 -149l-66 45q62 109 174.5 177.5t241.5 68.5q103 0 185 -32.5t133.5 -87.5t78.5 -125t27 -148
t-26 -148t-70 -124t-101.5 -104t-120.5 -93.5t-126 -86.5t-120.5 -89t-101.5 -95.5t-70 -111.5t-26 -131h785v-82h-873z" />
    <glyph glyph-name="three" unicode="3" horiz-adv-x="1140" 
d="M111 174l65 66q67 -75 170.5 -127t214.5 -52q142 0 250.5 100t108.5 253q0 107 -56 186.5t-141.5 117.5t-185.5 38h-99l-24 61l401 469q14 16 30 32.5t25 25.5l9 8v4q-39 -4 -111 -4h-588v82h821v-62l-462 -534q57 0 116 -11t124.5 -41.5t116 -76t83.5 -122t33 -173.5
q0 -183 -134 -311t-321 -128q-123 0 -240.5 53.5t-205.5 145.5z" />
    <glyph glyph-name="four" unicode="4" horiz-adv-x="1214" 
d="M84 410v61l743 963h82v-942h213v-82h-213v-410h-88v410h-737zM207 492h614v671l6 129h-4q-34 -51 -71 -98l-545 -698v-4z" />
    <glyph glyph-name="five" unicode="5" horiz-adv-x="1124" 
d="M119 182l71 56q48 -74 130.5 -125.5t201.5 -51.5q168 0 283 107.5t115 267.5q0 162 -115 270.5t-283 108.5q-71 0 -147 -23.5t-131 -62.5l-66 23l82 682h666v-82h-588l-51 -428l-15 -88h4q39 26 108 45.5t138 19.5q205 0 347.5 -135.5t142.5 -329.5q0 -127 -66 -233
t-178.5 -167t-245.5 -61q-122 0 -229.5 54.5t-173.5 152.5z" />
    <glyph glyph-name="six" unicode="6" horiz-adv-x="1193" 
d="M135 643q0 91 15.5 183t46 184.5t81.5 172.5t116.5 142t157.5 97.5t198 35.5q134 0 251 -57l-43 -80q-88 51 -215 51q-95 0 -177 -38.5t-140.5 -103t-102 -150t-67 -178t-29.5 -189.5h4q60 90 170 143t236 53q193 0 316.5 -125t123.5 -338q0 -217 -127.5 -344
t-312.5 -127q-116 0 -212 53.5t-158.5 145t-97 212.5t-34.5 257zM647 61q151 0 244.5 110t93.5 280q0 172 -97 272t-255 100q-100 0 -190.5 -39t-148.5 -110t-58 -156q0 -45 15 -102t48.5 -120t80 -115t116.5 -86t151 -34z" />
    <glyph glyph-name="seven" unicode="7" horiz-adv-x="1060" 
d="M231 0l598 1219q16 32 35 65t30 50l11 18v4q-40 -4 -112 -4h-697v82h908v-62l-680 -1372h-93z" />
    <glyph glyph-name="eight" unicode="8" horiz-adv-x="1206" 
d="M129 399q0 70 22 135t51.5 108.5t69 82.5t64 57t47.5 31q-184 115 -184 291q0 71 27 134t78.5 112.5t133.5 78.5t183 29q196 0 311 -100t115 -260q0 -71 -23 -142t-59.5 -125.5t-62.5 -86t-50 -54.5q101 -57 157 -129.5t56 -177.5q0 -169 -134 -288.5t-327 -119.5
q-89 0 -173.5 29t-152 82t-108.5 134.5t-41 178.5zM770 729q184 175 184 363q0 130 -92 205t-241 75q-151 0 -240.5 -75.5t-89.5 -188.5q0 -51 22 -95.5t52.5 -74.5t85.5 -62t97 -50.5t112.5 -48.5t109.5 -48zM221 406q0 -101 56 -181.5t142 -122t181 -41.5q145 0 259 92
t114 224q0 54 -23 99.5t-57 76.5t-90.5 62.5t-104 51.5t-117.5 50t-114 51q-22 -12 -47 -28.5t-62.5 -50.5t-66 -72t-49.5 -94.5t-21 -116.5z" />
    <glyph glyph-name="nine" unicode="9" horiz-adv-x="1193" 
d="M193 33l43 80q36 -21 93.5 -36.5t116.5 -15.5q97 0 180 38.5t142 103t102.5 150t67 178.5t29.5 190h-4q-60 -91 -170 -144t-236 -53q-192 0 -316 125.5t-124 331.5q0 113 35.5 205t96 150.5t140 90t168.5 31.5q154 0 269.5 -91.5t174 -242.5t58.5 -336q0 -109 -21 -219
t-69.5 -218t-118 -191t-175.5 -134t-233 -51q-133 0 -249 58zM561 610q159 0 278 91.5t119 193.5q0 76 -28.5 158.5t-78.5 154t-127.5 118t-164.5 46.5q-163 0 -256.5 -108.5t-93.5 -282.5q0 -170 97.5 -270.5t254.5 -100.5z" />
    <glyph glyph-name="colon" unicode=":" horiz-adv-x="436" 
d="M160 903v121h116v-121h-116zM160 0v121h116v-121h-116z" />
    <glyph glyph-name="semicolon" unicode=";" horiz-adv-x="563" 
d="M252 903v121h117v-121h-117zM160 -193l92 318h106l-114 -318h-84z" />
    <glyph glyph-name="less" unicode="&#x3c;" horiz-adv-x="1146" 
d="M98 543v73l899 404v-98l-772 -340v-4l772 -340v-99z" />
    <glyph glyph-name="equal" unicode="=" horiz-adv-x="1146" 
d="M106 702v82h934v-82h-934zM106 375v82h934v-82h-934z" />
    <glyph glyph-name="greater" unicode="&#x3e;" horiz-adv-x="1146" 
d="M150 139v99l772 340v4l-772 340v98l899 -404v-73z" />
    <glyph glyph-name="question" unicode="?" horiz-adv-x="890" 
d="M332 358v91q0 68 20 126t52.5 100t71.5 80.5t78 75t71.5 75t52.5 90.5t20 112q0 112 -83.5 188t-215.5 76q-67 0 -136.5 -23t-123.5 -63l-47 70q55 45 139 73.5t166 28.5q175 0 284.5 -99.5t109.5 -252.5q0 -69 -20.5 -127.5t-53 -100.5t-72 -80.5t-79.5 -74.5
t-72.5 -74.5t-53 -89.5t-20.5 -110v-91h-88zM315 0v125h121v-125h-121z" />
    <glyph glyph-name="at" unicode="@" horiz-adv-x="1558" 
d="M129 498q0 152 57 290.5t152 238.5t226 159t274 59q127 0 222 -30.5t148.5 -83t79 -114.5t25.5 -134v-705h143v-82h-543q-164 0 -279.5 116.5t-115.5 281.5t115.5 283t279.5 118h308q-2 54 -23 100t-63 85t-115 61t-170 22q-130 0 -247 -52.5t-200.5 -141.5t-132.5 -212
t-49 -259q0 -183 83 -335t227.5 -239.5t318.5 -87.5v-86q-196 0 -362 99.5t-262.5 271.5t-96.5 377zM610 494q0 -131 92 -223.5t222 -92.5h297v635h-293q-133 0 -225.5 -94t-92.5 -225z" />
    <glyph glyph-name="A" unicode="A" horiz-adv-x="1277" 
d="M55 0l537 1434h94l537 -1434h-95l-186 496h-608l-184 -496h-95zM365 578h546l-217 581q-10 27 -23.5 70t-21.5 73l-8 29h-4q-30 -111 -53 -172z" />
    <glyph glyph-name="B" unicode="B" horiz-adv-x="1245" 
d="M219 0v1434h481q159 0 261 -98.5t102 -260.5q0 -113 -49.5 -192.5t-136.5 -120.5v-4q108 -30 175.5 -128.5t67.5 -234.5q0 -178 -112.5 -286.5t-286.5 -108.5h-502zM307 795h391q121 0 197 77t76 203t-74.5 201.5t-200.5 75.5h-389v-557zM307 82h406q145 0 230 83.5
t85 229.5q0 144 -88.5 231t-228.5 87h-404v-631z" />
    <glyph glyph-name="C" unicode="C" horiz-adv-x="1472" 
d="M123 727q0 154 53 289.5t146 232.5t226 153t286 56q144 0 280 -44.5t232 -135.5l-54 -66q-86 77 -209 119.5t-247 42.5q-180 0 -322 -84t-220.5 -231.5t-78.5 -331.5q0 -139 46 -261.5t127 -212.5t199 -142t255 -52q134 0 262 50.5t223 144.5l55 -61q-226 -218 -540 -218
q-127 0 -239.5 38t-199.5 107t-150.5 162t-96.5 207t-33 238z" />
    <glyph glyph-name="D" unicode="D" horiz-adv-x="1511" 
d="M219 0v1434h451q324 0 519 -190.5t195 -526.5q0 -225 -90 -388t-250 -246t-374 -83h-451zM307 82h348q292 0 464.5 166t172.5 469q0 302 -173 468.5t-464 166.5h-348v-1270z" />
    <glyph glyph-name="E" unicode="E" horiz-adv-x="1138" 
d="M219 0v1434h785v-82h-697v-588h572v-82h-572v-600h735v-82h-823z" />
    <glyph glyph-name="F" unicode="F" horiz-adv-x="1019" 
d="M219 0v1434h723v-82h-635v-598h549v-82h-549v-672h-88z" />
    <glyph glyph-name="G" unicode="G" horiz-adv-x="1544" 
d="M123 717q0 204 93.5 374t257.5 268.5t364 98.5q137 0 268.5 -41t230.5 -121l-53 -67q-80 65 -202.5 105t-243.5 40q-177 0 -320 -86.5t-223 -236.5t-80 -334q0 -185 78 -335t218 -236.5t314 -86.5q138 0 268.5 64t223.5 172v276h-256v82h344v-653h-88v125l2 61h-4
q-83 -94 -213 -152.5t-277 -58.5t-277.5 58t-223.5 157t-147 236t-54 291z" />
    <glyph glyph-name="H" unicode="H" horiz-adv-x="1523" 
d="M219 0v1434h88v-674h910v674h88v-1434h-88v678h-910v-678h-88z" />
    <glyph glyph-name="I" unicode="I" horiz-adv-x="526" 
d="M219 0v1434h88v-1434h-88z" />
    <glyph glyph-name="J" unicode="J" horiz-adv-x="1042" 
d="M72 391v45h88v-47q0 -91 30 -163.5t98 -119.5t165 -47q58 0 108.5 17.5t94 54t69 103t25.5 155.5v963h-342v82h430v-1043q0 -110 -33 -193.5t-89.5 -130.5t-122 -69.5t-138.5 -22.5t-138.5 22.5t-122 69.5t-89.5 130.5t-33 193.5z" />
    <glyph glyph-name="K" unicode="K" horiz-adv-x="1167" 
d="M219 0v1434h88v-639h266l410 639h107l-441 -676v-4l469 -754h-106l-439 713h-266v-713h-88z" />
    <glyph glyph-name="L" unicode="L" horiz-adv-x="1040" 
d="M219 0v1434h88v-1352h684v-82h-772z" />
    <glyph glyph-name="M" unicode="M" horiz-adv-x="1708" 
d="M164 0l115 1434h86l417 -902l70 -161h4q37 91 70 161l417 902h87l114 -1434h-88l-88 1094q-3 31 -4.5 78.5t-1.5 79.5v32h-4q-41 -120 -74 -190l-385 -818h-90l-383 818q-14 30 -33 78.5t-31 81.5l-12 34h-4q0 -124 -6 -194l-88 -1094h-88z" />
    <glyph glyph-name="N" unicode="N" horiz-adv-x="1536" 
d="M219 0v1434h82l817 -1125q21 -29 50 -74t48 -75l19 -31h4q-10 108 -10 180v1125h88v-1434h-82l-817 1124q-21 29 -50 74.5t-48 75.5l-19 31h-4q10 -109 10 -181v-1124h-88z" />
    <glyph glyph-name="O" unicode="O" horiz-adv-x="1691" 
d="M121 727q0 152 56 287.5t152 233t230.5 154t286.5 56.5t286.5 -56.5t230.5 -154t152 -233t56 -287.5q0 -208 -94.5 -380.5t-261 -272t-369.5 -99.5t-369.5 99.5t-261 272t-94.5 380.5zM213 727q0 -186 82 -339t227.5 -241t323.5 -88t323.5 88t227.5 241t82 339
q0 136 -48.5 256t-132 205.5t-201 135.5t-251.5 50t-251.5 -50t-201 -135.5t-132 -205.5t-48.5 -256z" />
    <glyph glyph-name="P" unicode="P" horiz-adv-x="1206" 
d="M219 0v1434h471q191 0 313.5 -113.5t122.5 -304.5q0 -192 -122.5 -307t-313.5 -115h-383v-594h-88zM307 676h379q159 0 253.5 90.5t94.5 249.5t-94.5 247.5t-253.5 88.5h-379v-676z" />
    <glyph glyph-name="Q" unicode="Q" horiz-adv-x="1693" 
d="M123 725q0 204 94.5 372t260 264.5t366.5 96.5q207 0 374 -96.5t261 -264t94 -372.5q0 -146 -49 -279t-140 -231l185 -190l-58 -56l-182 189q-202 -183 -485 -183q-202 0 -368 100.5t-259.5 272t-93.5 377.5zM215 725q0 -184 83 -337t227.5 -241t318.5 -88q119 0 230 42
t196 118l-185 191l58 55l182 -189q73 89 114.5 206t41.5 243q0 183 -83 331.5t-229 233t-325 84.5q-131 0 -247.5 -49.5t-200 -135.5t-132.5 -206.5t-49 -257.5z" />
    <glyph glyph-name="R" unicode="R" horiz-adv-x="1243" 
d="M219 0v1434h420q173 0 258 -43q92 -46 145.5 -135t53.5 -209q0 -152 -79.5 -260t-207.5 -136v-4q15 -16 33 -51l321 -596h-104l-340 635h-412v-635h-88zM307 717h389q140 0 224 91.5t84 238.5q0 95 -45 168t-123 108q-66 29 -201 29h-328v-635z" />
    <glyph glyph-name="S" unicode="S" horiz-adv-x="1073" 
d="M106 154l60 67q72 -72 172 -116t205 -44q143 0 234 77.5t91 205.5q0 64 -25 116t-67.5 89t-97.5 68t-116 57.5t-121.5 53.5t-115.5 60.5t-97.5 74t-67.5 98.5t-25 129q0 165 123.5 266.5t308.5 101.5q100 0 198 -34.5t165 -98.5l-49 -76q-58 57 -144.5 90t-173.5 33
q-89 0 -165 -32t-123.5 -96t-47.5 -148q0 -61 25 -110.5t67.5 -84t97.5 -64t116 -55t122 -52.5t116 -62t97.5 -76.5t67.5 -102.5t25 -135q0 -165 -114 -272t-306 -107q-121 0 -235.5 47t-199.5 132z" />
    <glyph glyph-name="T" unicode="T" horiz-adv-x="1230" 
d="M571 0v1352h-534v82h1157v-82h-535v-1352h-88z" />
    <glyph glyph-name="U" unicode="U" horiz-adv-x="1476" 
d="M203 492v942h88v-938q0 -202 121 -319.5t325 -117.5t326.5 118.5t122.5 322.5v934h88v-942q0 -234 -148.5 -375.5t-386.5 -141.5t-387 141.5t-149 375.5z" />
    <glyph glyph-name="V" unicode="V" horiz-adv-x="1271" 
d="M588 0l-537 1434h94l433 -1160l55 -172h4q30 104 55 172l434 1160h95l-537 -1434h-96z" />
    <glyph glyph-name="W" unicode="W" horiz-adv-x="1871" 
d="M461 0l-377 1434h92l303 -1168l35 -153h4q19 81 39 153l328 1168h98l328 -1168l39 -153h4q17 83 35 153l313 1168h92l-387 -1434h-111l-303 1081q-12 41 -25.5 98t-21.5 93l-8 37h-8q-29 -136 -56 -228l-303 -1081h-110z" />
    <glyph glyph-name="X" unicode="X" horiz-adv-x="1136" 
d="M43 0l463 758l-412 676h107l274 -457l94 -160h4q46 90 89 160l276 457h106l-415 -676l465 -758h-105l-332 545l-92 153h-4q-43 -83 -86 -155l-328 -543h-104z" />
    <glyph glyph-name="Y" unicode="Y" horiz-adv-x="1161" 
d="M537 0v623l-488 811h101l339 -566l89 -161h4q45 91 88 161l340 566h100l-485 -811v-623h-88z" />
    <glyph glyph-name="Z" unicode="Z" horiz-adv-x="1157" 
d="M72 0v70l788 1151q22 33 46.5 65.5t37.5 49.5l14 16v4q-32 -4 -104 -4h-739v82h950v-70l-789 -1151q-22 -33 -46.5 -65.5t-37.5 -49.5l-14 -16v-4q33 4 105 4h788v-82h-999z" />
    <glyph glyph-name="bracketleft" unicode="[" horiz-adv-x="542" 
d="M201 -195v1680h221v-82h-133v-1516h133v-82h-221z" />
    <glyph glyph-name="backslash" unicode="\" horiz-adv-x="796" 
d="M612 -86l-518 1602h90l518 -1602h-90z" />
    <glyph glyph-name="bracketright" unicode="]" horiz-adv-x="542" 
d="M121 -113h133v1516h-133v82h221v-1680h-221v82z" />
    <glyph glyph-name="asciicircum" unicode="^" horiz-adv-x="1228" 
d="M158 516l403 918h66l403 -918h-94l-342 795l-342 -795h-94z" />
    <glyph glyph-name="underscore" unicode="_" horiz-adv-x="1191" 
d="M88 0h1016v-82h-1016v82z" />
    <glyph glyph-name="grave" unicode="`" horiz-adv-x="1042" 
d="M557 1536l-162 227h115l137 -227h-90z" />
    <glyph glyph-name="a" unicode="a" horiz-adv-x="1040" 
d="M84 272q0 56 16.5 103.5t42 81.5t66 61t79.5 44.5t92 30t93 18.5t93 9.5t82.5 4t70.5 0.5h67v34q0 306 -280 306q-161 0 -293 -99l-49 70q59 52 153.5 82.5t192.5 30.5q178 0 270 -98t92 -289v-662h-86v135q0 24 2 47t4 34l3 11h-4q-41 -107 -136.5 -179.5t-222.5 -72.5
q-64 0 -124.5 18t-111.5 53t-81.5 93.5t-30.5 132.5zM174 279q0 -89 69.5 -156.5t192.5 -67.5q80 0 148 39t111 102t67 139.5t24 153.5v56h-65q-41 0 -65.5 -0.5t-73 -2.5t-81 -6.5t-79.5 -14t-78 -22t-66 -33t-55.5 -46.5t-34.5 -62t-14 -79z" />
    <glyph glyph-name="b" unicode="b" horiz-adv-x="1183" 
d="M178 0v1434h86v-533q0 -21 -2 -42t-4 -31l-2 -11h4q46 106 145 169t226 63q203 0 322.5 -148t119.5 -389q0 -242 -128 -389.5t-331 -147.5q-116 0 -211 63.5t-143 168.5h-4q8 -37 8 -90v-117h-86zM262 510q0 -69 13.5 -134t42.5 -123t70.5 -101t100.5 -68t129 -25
q156 0 260.5 122t104.5 331q0 205 -99 329t-257 124q-73 0 -137 -26.5t-116 -79.5t-82 -143t-30 -206z" />
    <glyph glyph-name="c" unicode="c" horiz-adv-x="1105" 
d="M106 510q0 119 42.5 221t115 171t169 108t202.5 39q103 0 202 -37.5t164 -108.5l-53 -69q-56 59 -140.5 95t-172.5 36q-185 0 -311.5 -126.5t-126.5 -328.5q0 -200 127 -325.5t311 -125.5q96 0 188 39t154 109l45 -72q-65 -73 -169 -116.5t-218 -43.5q-108 0 -204.5 38
t-168.5 106.5t-114 170t-42 220.5z" />
    <glyph glyph-name="d" unicode="d" horiz-adv-x="1183" 
d="M111 512q0 242 127.5 389.5t330.5 147.5q116 0 211.5 -63.5t143.5 -168.5h4q-8 37 -8 84v533h86v-1434h-86v129q0 21 2 40.5t4 28.5l2 9h-4q-45 -100 -141 -166t-230 -66q-203 0 -322.5 148t-119.5 389zM201 512q0 -205 99 -329t257 -124q73 0 137 26.5t116 79.5t82 143
t30 206q0 118 -38 218t-121 166.5t-198 66.5q-156 0 -260 -122t-104 -331z" />
    <glyph glyph-name="e" unicode="e" horiz-adv-x="1124" 
d="M106 510q0 126 41 229.5t110 170.5t158.5 103t188.5 36q101 0 182.5 -38t132 -103t77 -148t26.5 -178q0 -20 -4 -56h-821q0 -215 126 -341t312 -126q87 0 171.5 34t145.5 95l47 -71q-68 -65 -167 -103.5t-197 -38.5q-108 0 -204.5 38t-168.5 106.5t-114 170t-42 220.5z
M203 606h729q-7 178 -100 270.5t-230 92.5q-148 0 -260 -95t-139 -268z" />
    <glyph glyph-name="f" unicode="f" horiz-adv-x="628" 
d="M209 0v940h-129v78h129v47q0 96 24.5 168.5t59 111.5t82 62.5t84 30t73.5 6.5q22 0 54 -4v-80q-16 4 -47 4q-29 0 -57 -5t-63.5 -24t-61.5 -49.5t-44 -87t-18 -131.5v-49h280v-78h-280v-940h-86z" />
    <glyph glyph-name="g" unicode="g" horiz-adv-x="1169" 
d="M242 -274q59 -32 133 -52t141 -20q175 0 282 87.5t107 264.5v119q0 21 2 42t4 31l2 11h-4q-48 -98 -134.5 -153.5t-209.5 -55.5q-201 0 -327.5 145t-126.5 383q0 239 120 380t320 141q118 0 215.5 -50.5t140.5 -150.5h4q-6 14 -6 39v137h86v-1018q0 -113 -38.5 -199.5
t-105 -136.5t-148.5 -75t-177 -25q-164 0 -321 80zM201 528q0 -205 102 -324.5t268 -119.5q71 0 129 23.5t106 73.5t74.5 138.5t26.5 208.5q0 437 -356 437q-165 0 -257.5 -115t-92.5 -322z" />
    <glyph glyph-name="h" unicode="h" horiz-adv-x="1200" 
d="M178 0v1434h86v-590q0 -21 -2 -42t-4 -32l-2 -10h4q12 32 34 67.5t60.5 75.5t86 72t114 53t139.5 21q97 0 164.5 -27.5t104.5 -82.5t53 -124.5t16 -165.5v-649h-86v618q0 61 -4 105t-19 93t-41 79t-74 50t-114 20q-116 0 -214 -58.5t-157 -165t-59 -237.5v-504h-86z" />
    <glyph glyph-name="i" unicode="i" horiz-adv-x="442" 
d="M170 1284v150h102v-150h-102zM178 0v1024h86v-1024h-86z" />
    <glyph glyph-name="j" unicode="j" horiz-adv-x="442" 
d="M170 1284v150h102v-150h-102zM178 -43v1067h86v-1065q0 -97 -24.5 -169.5t-59.5 -111t-82.5 -62t-84 -30t-74.5 -6.5q-16 0 -52 4v80q12 -4 45 -4q30 0 58 5t63.5 24t62 49.5t44.5 87t18 131.5z" />
    <glyph glyph-name="k" unicode="k" horiz-adv-x="968" 
d="M178 0v1434h86v-813h182l332 403h113l-371 -440v-4l406 -580h-109l-371 541h-182v-541h-86z" />
    <glyph glyph-name="l" unicode="l" horiz-adv-x="464" 
d="M178 207v1227h86v-1201q0 -159 121 -159q19 0 31 2v-80q-16 -4 -37 -4q-22 0 -44 3.5t-52 17t-52 35.5t-37.5 63t-15.5 96z" />
    <glyph glyph-name="m" unicode="m" horiz-adv-x="1880" 
d="M178 0v1024h86v-180q0 -21 -2 -42t-4 -32l-2 -10h4q38 116 155.5 202.5t237.5 86.5q151 0 228.5 -69.5t95.5 -209.5h4q45 113 154 196t235 83q188 0 265 -102t77 -298v-649h-86v618q0 63 -5.5 111t-22 95t-44.5 77.5t-74.5 49t-109.5 18.5q-106 0 -195 -67.5
t-137.5 -172.5t-48.5 -219v-510h-86v618q0 60 -4 104.5t-19 94t-41.5 80.5t-73.5 51.5t-112 20.5q-80 0 -153.5 -40t-124.5 -105t-81 -147.5t-30 -166.5v-510h-86z" />
    <glyph glyph-name="n" unicode="n" horiz-adv-x="1200" 
d="M178 0v1024h86v-180q0 -21 -2 -42t-4 -32l-2 -10h4q12 32 34 67.5t60.5 75.5t86 72t114 53t139.5 21q97 0 164.5 -27.5t104.5 -82.5t53 -124.5t16 -165.5v-649h-86v618q0 61 -4 105t-19 93t-41 79t-74 50t-114 20q-177 0 -303.5 -130.5t-126.5 -324.5v-510h-86z" />
    <glyph glyph-name="o" unicode="o" horiz-adv-x="1269" 
d="M104 518q0 147 71 269t193 192t267 70t266.5 -70t192.5 -192t71 -269q0 -150 -71 -275t-192.5 -196.5t-266.5 -71.5q-108 0 -206 42.5t-169.5 114.5t-113.5 173t-42 213zM195 518q0 -194 128 -326.5t312 -132.5t312 132.5t128 326.5q0 189 -128 318t-312 129t-312 -129
t-128 -318z" />
    <glyph glyph-name="p" unicode="p" horiz-adv-x="1183" 
d="M178 -410v1434h86v-123q0 -21 -1.5 -41.5t-2.5 -30.5l-2 -10h4q46 107 144.5 168.5t224.5 61.5q203 0 322.5 -148t119.5 -389q0 -242 -127.5 -389.5t-327.5 -147.5q-117 0 -213 62t-145 170h-4q8 -37 8 -90v-527h-86zM262 510q0 -86 24 -166.5t67.5 -144t112.5 -102
t152 -38.5q156 0 260.5 122t104.5 331q0 205 -99 329t-257 124q-73 0 -137 -26.5t-116 -79.5t-82 -143t-30 -206z" />
    <glyph glyph-name="q" unicode="q" horiz-adv-x="1183" 
d="M111 512q0 242 127.5 389.5t330.5 147.5q116 0 210.5 -62.5t142.5 -167.5h4q-6 35 -6 82v123h86v-1434h-86v527q0 24 2 46.5t4 32.5l2 11h-4q-19 -43 -49 -81t-74 -73.5t-108.5 -56.5t-139.5 -21q-203 0 -322.5 148t-119.5 389zM201 512q0 -205 99 -329t257 -124
q73 0 137 26.5t116 79.5t82 143t30 206q0 118 -38 218t-121 166.5t-198 66.5q-156 0 -260 -122t-104 -331z" />
    <glyph glyph-name="r" unicode="r" horiz-adv-x="696" 
d="M178 0v1024h86v-195q0 -21 -2 -42t-4 -31l-2 -11h4q41 126 126.5 206.5t201.5 80.5q32 0 59 -6v-86q-12 4 -47 4q-86 0 -153 -48.5t-105.5 -125t-58 -161t-19.5 -167.5v-442h-86z" />
    <glyph glyph-name="s" unicode="s" horiz-adv-x="880" 
d="M84 123l55 65q58 -61 143.5 -95t174.5 -34q99 0 167 51t68 142q0 52 -31 92.5t-80.5 66.5t-109.5 49t-120.5 49.5t-110 58.5t-80.5 84t-31 120q0 131 95 204t233 73q86 0 167 -27t136 -84l-51 -70q-43 46 -114 71.5t-144 25.5q-97 0 -164.5 -47t-67.5 -140q0 -47 24 -85
t64 -61.5t90.5 -47t103 -41.5t103 -45t90.5 -57.5t64 -79t24 -109.5q0 -122 -92.5 -199.5t-234.5 -77.5q-104 0 -204 37.5t-167 110.5z" />
    <glyph glyph-name="t" unicode="t" horiz-adv-x="622" 
d="M209 371v569h-135v78h135v291h86v-291h268v-78h-268v-563q0 -77 18 -135t44 -89.5t61.5 -50.5t63.5 -24.5t57 -5.5q31 0 47 4v-80q-16 -4 -51 -4q-26 0 -51.5 3t-59 13t-62.5 26t-58 45t-49.5 67.5t-33 96.5t-12.5 128z" />
    <glyph glyph-name="u" unicode="u" horiz-adv-x="1187" 
d="M166 375v649h86v-618q0 -61 4 -105t19 -93t41 -79t74 -50t114 -20q124 0 221.5 66.5t148 172t50.5 226.5v500h86v-1024h-86v180q0 21 2 42t4 32l2 10h-4q-12 -32 -33.5 -67.5t-59.5 -75.5t-84 -72t-111 -53t-136 -21q-183 0 -260.5 98.5t-77.5 301.5z" />
    <glyph glyph-name="v" unicode="v" horiz-adv-x="1015" 
d="M467 0l-404 1024h93l315 -803l35 -110h4q17 61 35 110l315 803h90l-401 -1024h-82z" />
    <glyph glyph-name="w" unicode="w" horiz-adv-x="1685" 
d="M430 0l-360 1024h92l278 -803l35 -110h4q19 61 35 110l281 799h96l280 -799l35 -110h4q17 59 35 110l279 803h92l-361 -1024h-92l-284 795l-35 110h-4q-17 -61 -35 -110l-283 -795h-92z" />
    <glyph glyph-name="x" unicode="x" horiz-adv-x="946" 
d="M45 0l369 541l-330 483h104l248 -373l35 -57h4q19 30 35 57l248 373h104l-330 -483l369 -541h-106l-283 424l-37 59h-4q-17 -28 -37 -59l-282 -424h-107z" />
    <glyph glyph-name="y" unicode="y" horiz-adv-x="1058" 
d="M84 -299q6 -5 17.5 -13.5t45 -22t64.5 -13.5q122 0 201 184l73 170l-424 1018h93l338 -817l36 -96h4q15 47 35 96l338 817h92l-526 -1264q-36 -85 -102 -137.5t-158 -52.5q-44 0 -85.5 14t-61.5 28l-19 15z" />
    <glyph glyph-name="z" unicode="z" horiz-adv-x="997" 
d="M78 0v70l620 780l80 94v4q-36 -4 -104 -4h-570v80h791v-70l-623 -780q-16 -21 -36.5 -44.5t-33.5 -36.5l-12 -13v-4q39 4 107 4h621v-80h-840z" />
    <glyph glyph-name="braceleft" unicode="{" horiz-adv-x="667" 
d="M270 180v193q0 94 -44.5 158.5t-129.5 84.5v82q84 19 129 83.5t45 160.5v166q0 99 23.5 172.5t55 110.5t74.5 59.5t71 27.5t55 5h18v-80h-12q-19 0 -39 -4t-50 -21.5t-52.5 -46.5t-39 -86.5t-16.5 -134.5v-190q0 -86 -42 -156.5t-119 -104.5v-4q74 -30 117.5 -97
t43.5 -163v-217q0 -77 16.5 -134.5t39 -86.5t52.5 -46.5t50 -21.5t39 -4h12v-80q-6 -2 -18 -2q-27 0 -55 5t-71 27.5t-74.5 60t-55 111.5t-23.5 173z" />
    <glyph glyph-name="bar" unicode="|" horiz-adv-x="481" 
d="M197 -317v1925h88v-1925h-88z" />
    <glyph glyph-name="braceright" unicode="}" horiz-adv-x="667" 
d="M100 -115h13q19 0 39 4t50 21.5t52 46.5t38.5 86.5t16.5 134.5v217q0 93 42.5 161t119.5 99v4q-70 29 -116 99t-46 162v190q0 77 -16.5 134.5t-38.5 86.5t-52 46.5t-50 21.5t-39 4h-13v80h19q27 0 55 -5t70.5 -27.5t74 -59.5t55 -110.5t23.5 -172.5v-166q0 -95 45 -160.5
t129 -83.5v-82q-84 -17 -129 -83t-45 -160v-193q0 -99 -23.5 -173t-55 -111.5t-74 -60t-70.5 -27.5t-55 -5l-19 2v80z" />
    <glyph glyph-name="asciitilde" unicode="~" horiz-adv-x="1214" 
d="M162 436q0 152 64 223.5t171 71.5q54 0 98.5 -16.5t72 -41.5t56.5 -54.5t53 -54.5t61 -41.5t81 -16.5q39 0 68.5 16.5t45 39.5t25.5 55t12.5 56.5t2.5 49.5h82q0 -152 -64.5 -223.5t-171.5 -71.5q-54 0 -98.5 16.5t-72 41.5t-56.5 54.5t-53 54.5t-61 41.5t-81 16.5
q-48 0 -81 -23t-47.5 -60.5t-19.5 -69t-5 -64.5h-82z" />
    <glyph glyph-name="uni00A0" unicode="&#xa0;" horiz-adv-x="512" 
 />
    <glyph glyph-name="exclamdown" unicode="&#xa1;" horiz-adv-x="464" 
d="M276 666v-1076h-88v1076h88zM291 1024v-125h-121v125h121z" />
    <glyph glyph-name="cent" unicode="&#xa2;" horiz-adv-x="1146" 
d="M551 -27v172q-140 12 -238.5 93t-144 203.5t-45.5 275.5q0 114 26.5 212.5t78.5 175.5t134.5 125.5t188.5 57.5v170h88v-170q250 -22 379 -291l-84 -32q-114 237 -334 237q-99 0 -174.5 -37.5t-120.5 -105t-67.5 -153.5t-22.5 -189t22.5 -189.5t67.5 -153.5t120.5 -105
t174.5 -38q219 0 334 238l84 -33q-131 -271 -379 -291v-172h-88z" />
    <glyph glyph-name="sterling" unicode="&#xa3;" horiz-adv-x="1146" 
d="M102 0v82h134v600h-93v82h93v332q0 154 114 258t289 104q172 0 301 -104l-59 -68q-46 38 -113.5 62t-130.5 24q-147 0 -230 -82.5t-83 -202.5v-323h405v-82h-405v-600h718v-82h-940z" />
    <glyph glyph-name="currency" unicode="&#xa4;" horiz-adv-x="1198" 
d="M272 0v389h-151v82h151v164h-151v82h151v717h404q191 0 313.5 -107.5t122.5 -290.5t-122.5 -292t-313.5 -109h-316v-164h523v-82h-523v-389h-88zM360 717h312q159 0 253.5 84.5t94.5 234.5t-94.5 233t-253.5 83h-312v-635z" />
    <glyph glyph-name="yen" unicode="&#xa5;" horiz-adv-x="1146" 
d="M197 455v82h333v86l-59 98h-274v82h225l-379 631h100l340 -566l88 -161h4q46 91 89 161l340 566h100l-379 -631h221v-82h-270l-58 -98v-86h328v-82h-328v-455h-88v455h-333z" />
    <glyph glyph-name="section" unicode="&#xa7;" horiz-adv-x="792" 
d="M291 127l-137 971q-4 32 -4 51q0 133 91.5 221t231.5 88q49 0 101 -18t90 -49l-54 -66q-63 49 -139 49q-99 0 -165 -63.5t-66 -167.5q0 -15 4 -43l133 -973h-86zM129 -59l53 65q26 -21 64.5 -35t75.5 -14q99 0 164 63.5t65 167.5q0 29 -2 43l-133 973h86l137 -971
q4 -36 4 -51q0 -133 -92 -221t-232 -88q-99 0 -190 68z" />
    <glyph glyph-name="dieresis" unicode="&#xa8;" horiz-adv-x="1042" 
d="M614 1614v149h95v-149h-95zM334 1614v149h94v-149h-94z" />
    <glyph glyph-name="copyright" unicode="&#xa9;" horiz-adv-x="1710" 
d="M131 717q0 152 57 289.5t153.5 236.5t230 157t280.5 58q150 0 285 -58t232.5 -157t154.5 -236t57 -290t-57 -291t-154.5 -236.5t-232.5 -156.5t-285 -58q-197 0 -362.5 98t-262 269t-96.5 375zM223 717q0 -183 83 -333.5t227.5 -236.5t318.5 -86q177 0 323.5 86
t230 236.5t83.5 333.5q0 136 -49.5 257.5t-134 208.5t-202.5 138t-251 51q-174 0 -318.5 -86t-227.5 -236.5t-83 -332.5zM436 715q0 82 28.5 158.5t82 138t139.5 98.5t191 37q96 0 185.5 -49.5t147.5 -130.5l-67 -60q-44 65 -115 108.5t-149 43.5q-165 0 -258 -101.5
t-93 -240.5q0 -65 22.5 -125.5t65 -109t111 -78t152.5 -29.5q78 0 148 41.5t116 109.5l67 -59q-52 -77 -144.5 -128.5t-188.5 -51.5q-106 0 -192 36.5t-139 97.5t-81.5 136.5t-28.5 157.5z" />
    <glyph glyph-name="ordfeminine" unicode="&#xaa;" horiz-adv-x="866" 
d="M403 782q-92 0 -159.5 49.5t-67.5 141.5q0 227 397 227h29v8q0 170 -156 170q-93 0 -176 -59l-45 61q43 35 104.5 54.5t119.5 19.5q233 0 233 -246v-413h-80v104h-4q-26 -48 -78.5 -82.5t-116.5 -34.5zM406 858q88 0 142 77t54 171v20h-27q-33 0 -56.5 -1t-65 -4.5
t-71.5 -13.5t-60 -25t-46 -41t-16 -60q0 -51 38 -87t108 -36zM170 539v75h518v-75h-518z" />
    <glyph glyph-name="guillemotleft" unicode="&#xab;" horiz-adv-x="1011" 
d="M440 578l336 421h109l-336 -421l336 -420h-109zM449 158l-336 420l336 421h108l-336 -421l336 -420h-108z" />
    <glyph glyph-name="logicalnot" unicode="&#xac;" horiz-adv-x="1288" 
d="M184 702v82h934v-448h-86v366h-848z" />
    <glyph glyph-name="uni00AD" unicode="&#xad;" horiz-adv-x="884" 
d="M160 539v82h565v-82h-565z" />
    <glyph glyph-name="registered" unicode="&#xae;" horiz-adv-x="1710" 
d="M131 717q0 152 57 289.5t153.5 236.5t230 157t280.5 58q150 0 285 -58t232.5 -157t154.5 -236t57 -290t-57 -291t-154.5 -236.5t-232.5 -156.5t-285 -58q-197 0 -362.5 98t-262 269t-96.5 375zM223 717q0 -183 83 -333.5t227.5 -236.5t318.5 -86q177 0 323.5 86
t230 236.5t83.5 333.5q0 136 -49.5 257.5t-134 208.5t-202.5 138t-251 51q-174 0 -318.5 -86t-227.5 -236.5t-83 -332.5zM614 307v819h273q105 0 171 -65t66 -172q0 -87 -45 -145t-112 -74v-4q8 -10 26 -45l162 -314h-100l-174 342h-176v-342h-91zM705 727h172
q71 0 113 43.5t42 118.5q0 73 -42 114t-113 41h-172v-317z" />
    <glyph glyph-name="macron" unicode="&#xaf;" horiz-adv-x="1042" 
d="M276 1610v82h490v-82h-490z" />
    <glyph glyph-name="degree" unicode="&#xb0;" horiz-adv-x="794" 
d="M397 920q-110 0 -188 78t-78 188t78 189t188 79t189.5 -79t79.5 -189t-79 -188t-190 -78zM397 1001q76 0 128.5 54t52.5 131t-52.5 131.5t-128.5 54.5t-127 -54.5t-51 -131.5t51 -131t127 -54z" />
    <glyph glyph-name="plusminus" unicode="&#xb1;" horiz-adv-x="1146" 
d="M45 539v82h485v538h88v-538h484v-82h-484v-539h-88v539h-485zM86 -231h975v-82h-975v82z" />
    <glyph glyph-name="twosuperior" unicode="&#xb2;" 
d="M111 866q-5 45 -5 56q0 67 25 124t65 96.5t88 75t96.5 68t88.5 65.5t65 77.5t25 95.5q0 74 -51.5 126t-134.5 52q-108 0 -193 -103l-49 54q37 52 104 87.5t138 35.5q126 0 196 -73t70 -179q0 -62 -24.5 -114.5t-64 -89.5t-87 -70t-96 -65t-88.5 -65.5t-65.5 -79.5
t-27.5 -100h469v-74h-544z" />
    <glyph glyph-name="threesuperior" unicode="&#xb3;" 
d="M367 846q-81 0 -158.5 34t-124.5 99l57 53q31 -46 92.5 -79t135.5 -33q79 0 145 59.5t66 146.5q0 89 -67 143t-153 54h-65l-23 49l222 260q10 12 23 24.5t21 19.5l7 7v5q-37 -7 -78 -7h-336v74h522v-53l-262 -307q36 -3 71 -12t71.5 -29.5t63.5 -49.5t44.5 -75t17.5 -103
q0 -117 -86 -198.5t-206 -81.5z" />
    <glyph glyph-name="acute" unicode="&#xb4;" horiz-adv-x="1042" 
d="M395 1536l137 227h115l-162 -227h-90z" />
    <glyph glyph-name="mu" unicode="&#xb5;" horiz-adv-x="1183" 
d="M266 80q13 -105 13 -148v-342h-86v1434h86v-618q0 -61 4 -104.5t18.5 -92.5t40.5 -79.5t73 -50.5t113 -20q95 0 175.5 39t133.5 103.5t83 148.5t30 174v500h86v-1024h-86v170l4 84h-4q-4 -11 -13 -30t-44.5 -67t-79.5 -85t-121 -67t-166 -30q-77 0 -147.5 25t-108.5 80
h-4z" />
    <glyph glyph-name="mu" unicode="&#x3bc;" horiz-adv-x="1183" 
d="M266 80q13 -105 13 -148v-342h-86v1434h86v-618q0 -61 4 -104.5t18.5 -92.5t40.5 -79.5t73 -50.5t113 -20q95 0 175.5 39t133.5 103.5t83 148.5t30 174v500h86v-1024h-86v170l4 84h-4q-4 -11 -13 -30t-44.5 -67t-79.5 -85t-121 -67t-166 -30q-77 0 -147.5 25t-108.5 80
h-4z" />
    <glyph glyph-name="paragraph" unicode="&#xb6;" horiz-adv-x="1112" 
d="M578 -102v596q-131 0 -244 62t-180.5 171t-67.5 238t67 237.5t179 170t243 61.5h431v-82h-342v-1454h-86zM791 -102v1325h86v-1325h-86z" />
    <glyph glyph-name="periodcentered" unicode="&#xb7;" horiz-adv-x="444" 
d="M160 522v129h125v-129h-125z" />
    <glyph glyph-name="cedilla" unicode="&#xb8;" horiz-adv-x="1042" 
d="M428 -190l49 227l66 -10v-17l-25 -133q64 -9 102.5 -46.5t38.5 -92.5q0 -79 -53 -117.5t-133 -38.5q-51 0 -90 8v78q33 -10 84 -10q111 0 111 76q0 36 -33 57t-92 21z" />
    <glyph glyph-name="onesuperior" unicode="&#xb9;" 
d="M170 866v74h197v666l2 45h-2q-9 -17 -48 -56l-90 -88l-53 56l191 192h77v-815h191v-74h-465z" />
    <glyph glyph-name="ordmasculine" unicode="&#xba;" horiz-adv-x="999" 
d="M498 784q-139 0 -236.5 98t-97.5 242q0 139 97.5 235.5t236.5 96.5q138 0 235.5 -96.5t97.5 -235.5q0 -144 -97 -242t-236 -98zM498 860q107 0 180.5 75.5t73.5 188.5q0 109 -73.5 182.5t-180.5 73.5t-180.5 -73.5t-73.5 -182.5q0 -113 73.5 -188.5t180.5 -75.5zM201 539
v75h602v-75h-602z" />
    <glyph glyph-name="guillemotright" unicode="&#xbb;" horiz-adv-x="1011" 
d="M455 158l336 420l-336 421h108l336 -421l-336 -420h-108zM127 158l336 420l-336 421h109l335 -421l-335 -420h-109z" />
    <glyph glyph-name="onequarter" unicode="&#xbc;" horiz-adv-x="1865" 
d="M1559 0v248h-441v53l455 588h63v-567h140v-74h-140v-248h-77zM1231 322h328v301l6 133h-4q-35 -56 -72 -103l-258 -327v-4zM129 545v73h197v666l2 45h-2q-8 -16 -47 -55l-91 -88l-53 55l191 193h77v-816h191v-73h-465zM604 0h-90l688 1434h88z" />
    <glyph glyph-name="onehalf" unicode="&#xbd;" horiz-adv-x="1841" 
d="M604 0h-90l688 1434h88zM129 545v73h197v666l2 45h-2q-8 -16 -47 -55l-91 -88l-53 55l191 193h77v-816h191v-73h-465zM1180 0q-4 36 -4 55q0 67 25 124t65 96.5t88 75t96 68t88 65.5t65 77.5t25 95.5q0 74 -52 126.5t-134 52.5q-108 0 -193 -103l-49 53q37 52 104 87.5
t138 35.5q126 0 196 -73t70 -179q0 -62 -24.5 -114.5t-64 -89t-87 -70t-96 -65t-88.5 -65t-65.5 -79.5t-27.5 -100h469v-74h-544z" />
    <glyph glyph-name="threequarters" unicode="&#xbe;" horiz-adv-x="1912" 
d="M387 524q-81 0 -158.5 34t-124.5 99l58 54q31 -46 92 -79.5t135 -33.5q79 0 145 60t66 147q0 89 -66.5 142.5t-152.5 53.5h-66l-22 50l221 260q10 12 23 24.5t21 19.5l7 7v4q-37 -6 -78 -6h-335v74h522v-54l-262 -307q46 -3 89.5 -18t85.5 -44.5t67.5 -82.5t25.5 -123
q0 -117 -86.5 -199t-206.5 -82zM651 0h-90l688 1434h88zM1606 0v248h-441v53l455 588h63v-567h140v-74h-140v-248h-77zM1278 322h328v301l6 133h-4q-35 -56 -72 -103l-258 -327v-4z" />
    <glyph glyph-name="questiondown" unicode="&#xbf;" horiz-adv-x="870" 
d="M547 666v-91q0 -68 -20 -126t-52.5 -100t-71.5 -80.5t-78.5 -75t-72 -75t-52.5 -90.5t-20 -112q0 -112 83.5 -188t215.5 -76q67 0 136.5 23t123.5 63l47 -70q-55 -45 -139 -73.5t-166 -28.5q-175 0 -284 99.5t-109 252.5q0 69 20.5 127.5t53 100.5t72 80.5t79.5 74.5
t72.5 74.5t53 89.5t20.5 110v91h88zM563 1024v-125h-121v125h121z" />
    <glyph glyph-name="Agrave" unicode="&#xc0;" horiz-adv-x="1277" 
d="M55 0l537 1434h94l537 -1434h-95l-186 496h-608l-184 -496h-95zM365 578h546l-217 581q-10 27 -23.5 70t-21.5 73l-8 29h-4q-30 -111 -53 -172zM594 1536l-162 227h115l137 -227h-90z" />
    <glyph glyph-name="Aacute" unicode="&#xc1;" horiz-adv-x="1277" 
d="M55 0l537 1434h94l537 -1434h-95l-186 496h-608l-184 -496h-95zM365 578h546l-217 581q-10 27 -23.5 70t-21.5 73l-8 29h-4q-30 -111 -53 -172zM592 1536l137 227h115l-162 -227h-90z" />
    <glyph glyph-name="Acircumflex" unicode="&#xc2;" horiz-adv-x="1277" 
d="M55 0l537 1434h94l537 -1434h-95l-186 496h-608l-184 -496h-95zM365 578h546l-217 581q-10 27 -23.5 70t-21.5 73l-8 29h-4q-30 -111 -53 -172zM422 1536l164 227h106l164 -227h-100l-115 164h-4l-115 -164h-100z" />
    <glyph glyph-name="Atilde" unicode="&#xc3;" horiz-adv-x="1277" 
d="M55 0l537 1434h94l537 -1434h-95l-186 496h-608l-184 -496h-95zM365 578h546l-217 581q-10 27 -23.5 70t-21.5 73l-8 29h-4q-30 -111 -53 -172zM344 1542q0 221 170 221q38 0 69.5 -15.5t53.5 -37.5t41.5 -44.5t43.5 -38t50 -15.5q25 0 43 15.5t25.5 40.5t10.5 46t3 43
h82q0 -221 -170 -221q-38 0 -69.5 15.5t-53.5 38t-41.5 45t-43.5 38t-50 15.5q-33 0 -53 -28.5t-24.5 -57.5t-4.5 -60h-82z" />
    <glyph glyph-name="Adieresis" unicode="&#xc4;" horiz-adv-x="1277" 
d="M55 0l537 1434h94l537 -1434h-95l-186 496h-608l-184 -496h-95zM365 578h546l-217 581q-10 27 -23.5 70t-21.5 73l-8 29h-4q-30 -111 -53 -172zM733 1614v149h94v-149h-94zM453 1614v149h94v-149h-94z" />
    <glyph glyph-name="Aring" unicode="&#xc5;" horiz-adv-x="1277" 
d="M55 0l537 1434h94l537 -1434h-95l-186 496h-608l-184 -496h-95zM365 578h546l-217 581q-10 27 -23.5 70t-21.5 73l-8 29h-4q-30 -111 -53 -172zM639 1516q-59 0 -98 39t-39 98t39 98t98 39t98 -39t39 -98t-39 -98t-98 -39zM639 1587q29 0 47.5 18.5t18.5 47.5
q0 31 -18.5 49t-47.5 18t-47.5 -18t-18.5 -49q0 -29 18.5 -47.5t47.5 -18.5z" />
    <glyph glyph-name="AE" unicode="&#xc6;" horiz-adv-x="1689" 
d="M47 0l588 1434h919v-82h-696v-588h572v-82h-572v-600h735v-82h-823v682h-350l-279 -682h-94zM455 764h315v588h-74z" />
    <glyph glyph-name="Ccedilla" unicode="&#xc7;" horiz-adv-x="1474" 
d="M750 -190l34 167q-194 14 -345.5 118t-232.5 269t-81 363q0 154 53 289.5t146 232.5t226 153t286 56q144 0 280 -44.5t232 -135.5l-54 -66q-86 77 -209 119.5t-247 42.5q-180 0 -322 -84t-220.5 -231.5t-78.5 -331.5q0 -139 46 -261.5t127 -212.5t199 -142t255 -52
q134 0 262 50.5t223 144.5l55 -61q-220 -213 -526 -218l-18 -98q64 -9 102.5 -46.5t38.5 -92.5q0 -79 -53 -117.5t-133 -38.5q-51 0 -90 8v78q33 -10 83 -10q111 0 111 76q0 36 -33 57t-92 21z" />
    <glyph glyph-name="Egrave" unicode="&#xc8;" horiz-adv-x="1138" 
d="M219 0v1434h785v-82h-697v-588h572v-82h-572v-600h735v-82h-823zM592 1536l-162 227h115l137 -227h-90z" />
    <glyph glyph-name="Eacute" unicode="&#xc9;" horiz-adv-x="1138" 
d="M219 0v1434h785v-82h-697v-588h572v-82h-572v-600h735v-82h-823zM590 1536l137 227h115l-162 -227h-90z" />
    <glyph glyph-name="Ecircumflex" unicode="&#xca;" horiz-adv-x="1138" 
d="M219 0v1434h785v-82h-697v-588h572v-82h-572v-600h735v-82h-823zM420 1536l164 227h106l164 -227h-100l-115 164h-4l-115 -164h-100z" />
    <glyph glyph-name="Edieresis" unicode="&#xcb;" horiz-adv-x="1138" 
d="M219 0v1434h785v-82h-697v-588h572v-82h-572v-600h735v-82h-823zM731 1614v149h94v-149h-94zM451 1614v149h94v-149h-94z" />
    <glyph glyph-name="Igrave" unicode="&#xcc;" horiz-adv-x="526" 
d="M219 0v1434h88v-1434h-88zM219 1536l-162 227h115l137 -227h-90z" />
    <glyph glyph-name="Iacute" unicode="&#xcd;" horiz-adv-x="526" 
d="M219 0v1434h88v-1434h-88zM217 1536l137 227h115l-162 -227h-90z" />
    <glyph glyph-name="Icircumflex" unicode="&#xce;" horiz-adv-x="526" 
d="M219 0v1434h88v-1434h-88zM47 1536l164 227h106l164 -227h-100l-115 164h-4l-115 -164h-100z" />
    <glyph glyph-name="Idieresis" unicode="&#xcf;" horiz-adv-x="526" 
d="M219 0v1434h88v-1434h-88zM358 1614v149h95v-149h-95zM78 1614v149h94v-149h-94z" />
    <glyph glyph-name="Eth" unicode="&#xd0;" horiz-adv-x="1523" 
d="M231 0v682h-122v82h122v670h451q325 0 520 -190.5t195 -526.5q0 -337 -195 -527t-520 -190h-451zM319 82h349q292 0 464.5 166t172.5 469q0 302 -173 468.5t-464 166.5h-349v-588h375v-82h-375v-600z" />
    <glyph glyph-name="Ntilde" unicode="&#xd1;" horiz-adv-x="1536" 
d="M219 0v1434h82l817 -1125q21 -29 50 -74t48 -75l19 -31h4q-10 108 -10 180v1125h88v-1434h-82l-817 1124q-21 29 -50 74.5t-48 75.5l-19 31h-4q10 -109 10 -181v-1124h-88zM473 1542q0 221 170 221q38 0 69.5 -15.5t53.5 -37.5t41.5 -44.5t43.5 -38t50 -15.5
q25 0 43 15.5t25.5 40.5t10.5 46t3 43h82q0 -221 -170 -221q-38 0 -69.5 15.5t-53.5 38t-41.5 45t-43.5 38t-50 15.5q-33 0 -53 -28.5t-24.5 -57.5t-4.5 -60h-82z" />
    <glyph glyph-name="Ograve" unicode="&#xd2;" horiz-adv-x="1691" 
d="M121 727q0 152 56 287.5t152 233t230.5 154t286.5 56.5t286.5 -56.5t230.5 -154t152 -233t56 -287.5q0 -208 -94.5 -380.5t-261 -272t-369.5 -99.5t-369.5 99.5t-261 272t-94.5 380.5zM213 727q0 -186 82 -339t227.5 -241t323.5 -88t323.5 88t227.5 241t82 339
q0 136 -48.5 256t-132 205.5t-201 135.5t-251.5 50t-251.5 -50t-201 -135.5t-132 -205.5t-48.5 -256zM801 1536l-162 227h115l137 -227h-90z" />
    <glyph glyph-name="Oacute" unicode="&#xd3;" horiz-adv-x="1691" 
d="M121 727q0 152 56 287.5t152 233t230.5 154t286.5 56.5t286.5 -56.5t230.5 -154t152 -233t56 -287.5q0 -208 -94.5 -380.5t-261 -272t-369.5 -99.5t-369.5 99.5t-261 272t-94.5 380.5zM213 727q0 -186 82 -339t227.5 -241t323.5 -88t323.5 88t227.5 241t82 339
q0 136 -48.5 256t-132 205.5t-201 135.5t-251.5 50t-251.5 -50t-201 -135.5t-132 -205.5t-48.5 -256zM799 1536l137 227h115l-162 -227h-90z" />
    <glyph glyph-name="Ocircumflex" unicode="&#xd4;" horiz-adv-x="1691" 
d="M121 727q0 152 56 287.5t152 233t230.5 154t286.5 56.5t286.5 -56.5t230.5 -154t152 -233t56 -287.5q0 -208 -94.5 -380.5t-261 -272t-369.5 -99.5t-369.5 99.5t-261 272t-94.5 380.5zM213 727q0 -186 82 -339t227.5 -241t323.5 -88t323.5 88t227.5 241t82 339
q0 136 -48.5 256t-132 205.5t-201 135.5t-251.5 50t-251.5 -50t-201 -135.5t-132 -205.5t-48.5 -256zM629 1536l164 227h106l164 -227h-100l-115 164h-4l-115 -164h-100z" />
    <glyph glyph-name="Otilde" unicode="&#xd5;" horiz-adv-x="1691" 
d="M121 727q0 152 56 287.5t152 233t230.5 154t286.5 56.5t286.5 -56.5t230.5 -154t152 -233t56 -287.5q0 -208 -94.5 -380.5t-261 -272t-369.5 -99.5t-369.5 99.5t-261 272t-94.5 380.5zM213 727q0 -186 82 -339t227.5 -241t323.5 -88t323.5 88t227.5 241t82 339
q0 136 -48.5 256t-132 205.5t-201 135.5t-251.5 50t-251.5 -50t-201 -135.5t-132 -205.5t-48.5 -256zM551 1542q0 221 170 221q38 0 69.5 -15.5t53.5 -37.5t41.5 -44.5t43.5 -38t50 -15.5q25 0 43 15.5t25.5 40.5t10.5 46t3 43h82q0 -221 -170 -221q-38 0 -69.5 15.5
t-53.5 38t-41.5 45t-43.5 38t-50 15.5q-33 0 -53 -28.5t-24.5 -57.5t-4.5 -60h-82z" />
    <glyph glyph-name="Odieresis" unicode="&#xd6;" horiz-adv-x="1691" 
d="M121 727q0 152 56 287.5t152 233t230.5 154t286.5 56.5t286.5 -56.5t230.5 -154t152 -233t56 -287.5q0 -208 -94.5 -380.5t-261 -272t-369.5 -99.5t-369.5 99.5t-261 272t-94.5 380.5zM213 727q0 -186 82 -339t227.5 -241t323.5 -88t323.5 88t227.5 241t82 339
q0 136 -48.5 256t-132 205.5t-201 135.5t-251.5 50t-251.5 -50t-201 -135.5t-132 -205.5t-48.5 -256zM940 1614v149h94v-149h-94zM659 1614v149h95v-149h-95z" />
    <glyph glyph-name="multiply" unicode="&#xd7;" horiz-adv-x="1146" 
d="M57 57l459 523l-459 522l62 57l454 -516l455 516l62 -57l-461 -522l461 -523l-62 -57l-455 516l-454 -516z" />
    <glyph glyph-name="Oslash" unicode="&#xd8;" horiz-adv-x="1689" 
d="M281 2l102 143q-122 105 -192 256.5t-70 323.5q0 153 57.5 289.5t155 233.5t231 153.5t281.5 56.5q211 0 393 -117l100 142l70 -51l-100 -142q123 -102 192.5 -248t69.5 -317q0 -154 -57.5 -293t-155 -239t-231.5 -159t-281 -59q-213 0 -393 119l-101 -141zM434 217
l754 1055q-151 102 -342 102q-173 0 -318 -84.5t-230 -234t-85 -330.5q0 -152 59.5 -284.5t161.5 -223.5zM502 164q151 -105 342 -105q174 0 319.5 87.5t230.5 240.5t85 336q0 151 -59 279.5t-163 218.5z" />
    <glyph glyph-name="Ugrave" unicode="&#xd9;" horiz-adv-x="1476" 
d="M203 492v942h88v-938q0 -202 121 -319.5t325 -117.5t326.5 118.5t122.5 322.5v934h88v-942q0 -234 -148.5 -375.5t-386.5 -141.5t-387 141.5t-149 375.5zM692 1536l-162 227h115l137 -227h-90z" />
    <glyph glyph-name="Uacute" unicode="&#xda;" horiz-adv-x="1476" 
d="M203 492v942h88v-938q0 -202 121 -319.5t325 -117.5t326.5 118.5t122.5 322.5v934h88v-942q0 -234 -148.5 -375.5t-386.5 -141.5t-387 141.5t-149 375.5zM690 1536l137 227h115l-162 -227h-90z" />
    <glyph glyph-name="Ucircumflex" unicode="&#xdb;" horiz-adv-x="1476" 
d="M203 492v942h88v-938q0 -202 121 -319.5t325 -117.5t326.5 118.5t122.5 322.5v934h88v-942q0 -234 -148.5 -375.5t-386.5 -141.5t-387 141.5t-149 375.5zM520 1536l164 227h107l163 -227h-100l-115 164h-4l-114 -164h-101z" />
    <glyph glyph-name="Udieresis" unicode="&#xdc;" horiz-adv-x="1476" 
d="M203 492v942h88v-938q0 -202 121 -319.5t325 -117.5t326.5 118.5t122.5 322.5v934h88v-942q0 -234 -148.5 -375.5t-386.5 -141.5t-387 141.5t-149 375.5zM831 1614v149h95v-149h-95zM551 1614v149h94v-149h-94z" />
    <glyph glyph-name="Yacute" unicode="&#xdd;" horiz-adv-x="1161" 
d="M537 0v623l-488 811h101l339 -566l89 -161h4q45 91 88 161l340 566h100l-485 -811v-623h-88zM532 1536l138 227h114l-161 -227h-91z" />
    <glyph glyph-name="Thorn" unicode="&#xde;" horiz-adv-x="1214" 
d="M219 0v1434h88v-267h383q191 0 313.5 -113t122.5 -304q0 -192 -123 -307t-317 -115h-379v-328h-88zM307 410h379q159 0 253.5 90.5t94.5 249.5t-94.5 247t-253.5 88h-379v-675z" />
    <glyph glyph-name="germandbls" unicode="&#xdf;" horiz-adv-x="1150" 
d="M178 0v1090q0 70 22 130t59 103.5t86.5 74t104.5 45.5t113 15q152 0 241 -84.5t89 -197.5q0 -62 -25.5 -116t-62 -91.5t-73 -71.5t-62 -70.5t-25.5 -72.5q0 -30 24 -60.5t62 -57.5t84 -56t92 -62.5t84 -70t62 -84.5t24 -101q0 -132 -92 -204t-223 -72q-190 0 -316 71v95
q63 -39 149.5 -60.5t168.5 -21.5q95 0 159 49t64 143q0 60 -44.5 112.5t-108 93t-127 80.5t-108 91.5t-44.5 110.5q0 51 25.5 97t62 82t73 71.5t62 81t25.5 94.5q0 77 -64.5 137.5t-179.5 60.5q-117 0 -206 -79.5t-89 -211.5v-1083h-86z" />
    <glyph glyph-name="agrave" unicode="&#xe0;" horiz-adv-x="1040" 
d="M84 272q0 56 16.5 103.5t42 81.5t66 61t79.5 44.5t92 30t93 18.5t93 9.5t82.5 4t70.5 0.5h67v34q0 306 -280 306q-161 0 -293 -99l-49 70q59 52 153.5 82.5t192.5 30.5q178 0 270 -98t92 -289v-662h-86v135q0 24 2 47t4 34l3 11h-4q-41 -107 -136.5 -179.5t-222.5 -72.5
q-64 0 -124.5 18t-111.5 53t-81.5 93.5t-30.5 132.5zM174 279q0 -89 69.5 -156.5t192.5 -67.5q80 0 148 39t111 102t67 139.5t24 153.5v56h-65q-41 0 -65.5 -0.5t-73 -2.5t-81 -6.5t-79.5 -14t-78 -22t-66 -33t-55.5 -46.5t-34.5 -62t-14 -79zM465 1206l-162 228h115
l137 -228h-90z" />
    <glyph glyph-name="aacute" unicode="&#xe1;" horiz-adv-x="1040" 
d="M84 272q0 56 16.5 103.5t42 81.5t66 61t79.5 44.5t92 30t93 18.5t93 9.5t82.5 4t70.5 0.5h67v34q0 306 -280 306q-161 0 -293 -99l-49 70q59 52 153.5 82.5t192.5 30.5q178 0 270 -98t92 -289v-662h-86v135q0 24 2 47t4 34l3 11h-4q-41 -107 -136.5 -179.5t-222.5 -72.5
q-64 0 -124.5 18t-111.5 53t-81.5 93.5t-30.5 132.5zM174 279q0 -89 69.5 -156.5t192.5 -67.5q80 0 148 39t111 102t67 139.5t24 153.5v56h-65q-41 0 -65.5 -0.5t-73 -2.5t-81 -6.5t-79.5 -14t-78 -22t-66 -33t-55.5 -46.5t-34.5 -62t-14 -79zM461 1206l137 228h115
l-162 -228h-90z" />
    <glyph glyph-name="acircumflex" unicode="&#xe2;" horiz-adv-x="1040" 
d="M84 272q0 56 16.5 103.5t42 81.5t66 61t79.5 44.5t92 30t93 18.5t93 9.5t82.5 4t70.5 0.5h67v34q0 306 -280 306q-161 0 -293 -99l-49 70q59 52 153.5 82.5t192.5 30.5q178 0 270 -98t92 -289v-662h-86v135q0 24 2 47t4 34l3 11h-4q-41 -107 -136.5 -179.5t-222.5 -72.5
q-64 0 -124.5 18t-111.5 53t-81.5 93.5t-30.5 132.5zM174 279q0 -89 69.5 -156.5t192.5 -67.5q80 0 148 39t111 102t67 139.5t24 153.5v56h-65q-41 0 -65.5 -0.5t-73 -2.5t-81 -6.5t-79.5 -14t-78 -22t-66 -33t-55.5 -46.5t-34.5 -62t-14 -79zM293 1206l164 228h106
l164 -228h-100l-115 164h-4l-115 -164h-100z" />
    <glyph glyph-name="atilde" unicode="&#xe3;" horiz-adv-x="1040" 
d="M84 272q0 56 16.5 103.5t42 81.5t66 61t79.5 44.5t92 30t93 18.5t93 9.5t82.5 4t70.5 0.5h67v34q0 306 -280 306q-161 0 -293 -99l-49 70q59 52 153.5 82.5t192.5 30.5q178 0 270 -98t92 -289v-662h-86v135q0 24 2 47t4 34l3 11h-4q-41 -107 -136.5 -179.5t-222.5 -72.5
q-64 0 -124.5 18t-111.5 53t-81.5 93.5t-30.5 132.5zM174 279q0 -89 69.5 -156.5t192.5 -67.5q80 0 148 39t111 102t67 139.5t24 153.5v56h-65q-41 0 -65.5 -0.5t-73 -2.5t-81 -6.5t-79.5 -14t-78 -22t-66 -33t-55.5 -46.5t-34.5 -62t-14 -79zM215 1212q0 222 170 222
q38 0 69.5 -15.5t53.5 -38t41.5 -45t43.5 -38t50 -15.5q25 0 43 15.5t25.5 40.5t10.5 46t3 43h82q0 -221 -170 -221q-38 0 -69.5 15.5t-53.5 38t-41.5 45t-43.5 38t-50 15.5q-33 0 -53 -28.5t-24.5 -57.5t-4.5 -60h-82z" />
    <glyph glyph-name="adieresis" unicode="&#xe4;" horiz-adv-x="1040" 
d="M84 272q0 56 16.5 103.5t42 81.5t66 61t79.5 44.5t92 30t93 18.5t93 9.5t82.5 4t70.5 0.5h67v34q0 306 -280 306q-161 0 -293 -99l-49 70q59 52 153.5 82.5t192.5 30.5q178 0 270 -98t92 -289v-662h-86v135q0 24 2 47t4 34l3 11h-4q-41 -107 -136.5 -179.5t-222.5 -72.5
q-64 0 -124.5 18t-111.5 53t-81.5 93.5t-30.5 132.5zM174 279q0 -89 69.5 -156.5t192.5 -67.5q80 0 148 39t111 102t67 139.5t24 153.5v56h-65q-41 0 -65.5 -0.5t-73 -2.5t-81 -6.5t-79.5 -14t-78 -22t-66 -33t-55.5 -46.5t-34.5 -62t-14 -79zM604 1284v150h94v-150h-94z
M324 1284v150h94v-150h-94z" />
    <glyph glyph-name="aring" unicode="&#xe5;" horiz-adv-x="1040" 
d="M84 272q0 56 16.5 103.5t42 81.5t66 61t79.5 44.5t92 30t93 18.5t93 9.5t82.5 4t70.5 0.5h67v34q0 306 -280 306q-161 0 -293 -99l-49 70q59 52 153.5 82.5t192.5 30.5q178 0 270 -98t92 -289v-662h-86v135q0 24 2 47t4 34l3 11h-4q-41 -107 -136.5 -179.5t-222.5 -72.5
q-64 0 -124.5 18t-111.5 53t-81.5 93.5t-30.5 132.5zM174 279q0 -89 69.5 -156.5t192.5 -67.5q80 0 148 39t111 102t67 139.5t24 153.5v56h-65q-41 0 -65.5 -0.5t-73 -2.5t-81 -6.5t-79.5 -14t-78 -22t-66 -33t-55.5 -46.5t-34.5 -62t-14 -79zM510 1186q-58 0 -97.5 39
t-39.5 98t39.5 98t97.5 39t97.5 -39t39.5 -98t-39.5 -98t-97.5 -39zM510 1257q29 0 47 18.5t18 47.5q0 31 -18 49.5t-47 18.5t-47.5 -18.5t-18.5 -49.5q0 -29 18.5 -47.5t47.5 -18.5z" />
    <glyph glyph-name="ae" unicode="&#xe6;" horiz-adv-x="1779" 
d="M86 272q0 55 14 100.5t35.5 78.5t57.5 59t70 43t84 29t88.5 18t94 9.5t89.5 4t86 0.5h81v45q0 306 -288 306q-156 0 -285 -99l-49 70q59 53 151 83t187 30q293 0 352 -240h4q62 118 167.5 179t238.5 61q131 0 226.5 -63.5t141 -165.5t45.5 -228q0 -25 -4 -57h-801
q0 -224 116.5 -350t301.5 -126q87 0 172 34t146 95l47 -71q-67 -64 -166.5 -103t-198.5 -39q-160 0 -283 83.5t-178 230.5h-4q-5 -23 -17.5 -54.5t-43.5 -79t-71.5 -86t-108 -66.5t-146.5 -28q-148 0 -250 78t-102 219zM881 614h706q-4 90 -33 160t-75.5 111t-102.5 61.5
t-119 20.5q-146 0 -248.5 -90.5t-127.5 -262.5zM176 279q0 -92 69.5 -158t192.5 -66q80 0 147.5 39t110.5 102t66.5 139.5t23.5 153.5v46h-141q-49 0 -86 -1.5t-88.5 -7t-89.5 -16t-79 -29.5t-66.5 -45.5t-42.5 -66.5t-17 -90z" />
    <glyph glyph-name="ccedilla" unicode="&#xe7;" horiz-adv-x="1110" 
d="M539 -190l36 170q-202 21 -334 164.5t-132 365.5q0 119 42.5 221t114.5 171t168.5 108t202.5 39q103 0 202.5 -37.5t164.5 -108.5l-54 -69q-56 59 -140.5 95t-172.5 36q-185 0 -311.5 -126.5t-126.5 -328.5q0 -200 127 -325.5t311 -125.5q96 0 188 39t154 109l45 -72
q-63 -71 -164 -114t-213 -46l-18 -98q64 -9 102.5 -46.5t38.5 -92.5q0 -79 -53 -117.5t-133 -38.5q-51 0 -90 8v78q33 -10 84 -10q110 0 110 76q0 36 -33 57t-92 21z" />
    <glyph glyph-name="egrave" unicode="&#xe8;" horiz-adv-x="1124" 
d="M106 510q0 126 41 229.5t110 170.5t158.5 103t188.5 36q101 0 182.5 -38t132 -103t77 -148t26.5 -178q0 -20 -4 -56h-821q0 -215 126 -341t312 -126q87 0 171.5 34t145.5 95l47 -71q-68 -65 -167 -103.5t-197 -38.5q-108 0 -204.5 38t-168.5 106.5t-114 170t-42 220.5z
M203 606h729q-7 178 -100 270.5t-230 92.5q-148 0 -260 -95t-139 -268zM565 1206l-162 228h115l137 -228h-90z" />
    <glyph glyph-name="eacute" unicode="&#xe9;" horiz-adv-x="1124" 
d="M106 510q0 126 41 229.5t110 170.5t158.5 103t188.5 36q101 0 182.5 -38t132 -103t77 -148t26.5 -178q0 -20 -4 -56h-821q0 -215 126 -341t312 -126q87 0 171.5 34t145.5 95l47 -71q-68 -65 -167 -103.5t-197 -38.5q-108 0 -204.5 38t-168.5 106.5t-114 170t-42 220.5z
M203 606h729q-7 178 -100 270.5t-230 92.5q-148 0 -260 -95t-139 -268zM561 1206l137 228h115l-162 -228h-90z" />
    <glyph glyph-name="ecircumflex" unicode="&#xea;" horiz-adv-x="1124" 
d="M106 510q0 126 41 229.5t110 170.5t158.5 103t188.5 36q101 0 182.5 -38t132 -103t77 -148t26.5 -178q0 -20 -4 -56h-821q0 -215 126 -341t312 -126q87 0 171.5 34t145.5 95l47 -71q-68 -65 -167 -103.5t-197 -38.5q-108 0 -204.5 38t-168.5 106.5t-114 170t-42 220.5z
M203 606h729q-7 178 -100 270.5t-230 92.5q-148 0 -260 -95t-139 -268zM391 1206l164 228h107l163 -228h-100l-115 164h-4l-114 -164h-101z" />
    <glyph glyph-name="edieresis" unicode="&#xeb;" horiz-adv-x="1124" 
d="M106 510q0 126 41 229.5t110 170.5t158.5 103t188.5 36q101 0 182.5 -38t132 -103t77 -148t26.5 -178q0 -20 -4 -56h-821q0 -215 126 -341t312 -126q87 0 171.5 34t145.5 95l47 -71q-68 -65 -167 -103.5t-197 -38.5q-108 0 -204.5 38t-168.5 106.5t-114 170t-42 220.5z
M203 606h729q-7 178 -100 270.5t-230 92.5q-148 0 -260 -95t-139 -268zM702 1284v150h95v-150h-95zM422 1284v150h94v-150h-94z" />
    <glyph glyph-name="igrave" unicode="&#xec;" horiz-adv-x="442" 
d="M178 0v1024h86v-1024h-86zM178 1206l-162 228h115l137 -228h-90z" />
    <glyph glyph-name="iacute" unicode="&#xed;" horiz-adv-x="442" 
d="M178 0v1024h86v-1024h-86zM176 1206l137 228h115l-162 -228h-90z" />
    <glyph glyph-name="icircumflex" unicode="&#xee;" horiz-adv-x="442" 
d="M178 0v1024h86v-1024h-86zM6 1206l164 228h106l164 -228h-100l-115 164h-4l-115 -164h-100z" />
    <glyph glyph-name="idieresis" unicode="&#xef;" horiz-adv-x="442" 
d="M178 0v1024h86v-1024h-86zM317 1284v150h95v-150h-95zM37 1284v150h94v-150h-94z" />
    <glyph glyph-name="eth" unicode="&#xf0;" horiz-adv-x="1181" 
d="M111 471q0 75 19 145t59.5 132.5t98 109t139 73.5t177.5 27q63 0 120.5 -14t94.5 -34t64.5 -39.5t40.5 -33.5l12 -14h4q-74 230 -281 375l-352 -164l-35 76l299 139q-136 72 -313 117l25 78q233 -60 385 -152l252 119l34 -76l-206 -96q146 -111 232.5 -283t86.5 -403
q0 -84 -18 -165t-58 -156t-96.5 -132t-140 -91t-183.5 -34q-107 0 -196 42.5t-145.5 113t-87.5 158.5t-31 182zM201 471q0 -79 25.5 -153t72 -132.5t118.5 -93.5t158 -35q81 0 149 29.5t114 77.5t78 111.5t46.5 130t14.5 133.5q0 148 -104 243t-271 95q-99 0 -177.5 -35
t-126 -93t-72.5 -129.5t-25 -148.5z" />
    <glyph glyph-name="ntilde" unicode="&#xf1;" horiz-adv-x="1200" 
d="M178 0v1024h86v-180q0 -21 -2 -42t-4 -32l-2 -10h4q12 32 34 67.5t60.5 75.5t86 72t114 53t139.5 21q97 0 164.5 -27.5t104.5 -82.5t53 -124.5t16 -165.5v-649h-86v618q0 61 -4 105t-19 93t-41 79t-74 50t-114 20q-177 0 -303.5 -130.5t-126.5 -324.5v-510h-86zM334 1212
q0 222 170 222q38 0 69.5 -15.5t53.5 -38t41.5 -45t43.5 -38t50 -15.5q25 0 43 15.5t25.5 40.5t10.5 46t3 43h82q0 -221 -170 -221q-38 0 -69.5 15.5t-53.5 38t-41.5 45t-43.5 38t-50 15.5q-33 0 -53 -28.5t-24.5 -57.5t-4.5 -60h-82z" />
    <glyph glyph-name="ograve" unicode="&#xf2;" horiz-adv-x="1269" 
d="M104 518q0 147 71 269t193 192t267 70t266.5 -70t192.5 -192t71 -269q0 -150 -71 -275t-192.5 -196.5t-266.5 -71.5q-108 0 -206 42.5t-169.5 114.5t-113.5 173t-42 213zM195 518q0 -194 128 -326.5t312 -132.5t312 132.5t128 326.5q0 189 -128 318t-312 129t-312 -129
t-128 -318zM590 1206l-162 228h115l137 -228h-90z" />
    <glyph glyph-name="oacute" unicode="&#xf3;" horiz-adv-x="1269" 
d="M104 518q0 147 71 269t193 192t267 70t266.5 -70t192.5 -192t71 -269q0 -150 -71 -275t-192.5 -196.5t-266.5 -71.5q-108 0 -206 42.5t-169.5 114.5t-113.5 173t-42 213zM195 518q0 -194 128 -326.5t312 -132.5t312 132.5t128 326.5q0 189 -128 318t-312 129t-312 -129
t-128 -318zM588 1206l137 228h115l-162 -228h-90z" />
    <glyph glyph-name="ocircumflex" unicode="&#xf4;" horiz-adv-x="1269" 
d="M104 518q0 147 71 269t193 192t267 70t266.5 -70t192.5 -192t71 -269q0 -150 -71 -275t-192.5 -196.5t-266.5 -71.5q-108 0 -206 42.5t-169.5 114.5t-113.5 173t-42 213zM195 518q0 -194 128 -326.5t312 -132.5t312 132.5t128 326.5q0 189 -128 318t-312 129t-312 -129
t-128 -318zM418 1206l164 228h106l164 -228h-100l-115 164h-4l-115 -164h-100z" />
    <glyph glyph-name="otilde" unicode="&#xf5;" horiz-adv-x="1269" 
d="M104 518q0 147 71 269t193 192t267 70t266.5 -70t192.5 -192t71 -269q0 -150 -71 -275t-192.5 -196.5t-266.5 -71.5q-108 0 -206 42.5t-169.5 114.5t-113.5 173t-42 213zM195 518q0 -194 128 -326.5t312 -132.5t312 132.5t128 326.5q0 189 -128 318t-312 129t-312 -129
t-128 -318zM340 1212q0 222 170 222q38 0 69.5 -15.5t53.5 -38t41.5 -45t43.5 -38t50 -15.5q25 0 43 15.5t25.5 40.5t10.5 46t3 43h82q0 -221 -170 -221q-38 0 -69.5 15.5t-53.5 38t-41.5 45t-43.5 38t-50 15.5q-33 0 -53 -28.5t-24.5 -57.5t-4.5 -60h-82z" />
    <glyph glyph-name="odieresis" unicode="&#xf6;" horiz-adv-x="1269" 
d="M104 518q0 147 71 269t193 192t267 70t266.5 -70t192.5 -192t71 -269q0 -150 -71 -275t-192.5 -196.5t-266.5 -71.5q-108 0 -206 42.5t-169.5 114.5t-113.5 173t-42 213zM195 518q0 -194 128 -326.5t312 -132.5t312 132.5t128 326.5q0 189 -128 318t-312 129t-312 -129
t-128 -318zM729 1284v150h94v-150h-94zM449 1284v150h94v-150h-94z" />
    <glyph glyph-name="divide" unicode="&#xf7;" horiz-adv-x="1146" 
d="M514 883v121h117v-121h-117zM86 539v82h975v-82h-975zM514 156v120h117v-120h-117z" />
    <glyph glyph-name="oslash" unicode="&#xf8;" horiz-adv-x="1271" 
d="M225 -6l74 104q-91 75 -142 184t-51 236q0 147 71 269t193 192t267 70q154 0 283 -80l77 108l70 -53l-78 -109q84 -74 131 -176.5t47 -220.5q0 -150 -71 -275t-192.5 -196.5t-266.5 -71.5q-147 0 -266 72l-76 -106zM348 168l522 731q-109 66 -233 66q-184 0 -312 -129
t-128 -318q0 -105 40 -195t111 -155zM420 117q99 -58 217 -58q184 0 312 132.5t128 326.5q0 97 -36.5 181t-102.5 145z" />
    <glyph glyph-name="ugrave" unicode="&#xf9;" horiz-adv-x="1187" 
d="M166 375v649h86v-618q0 -61 4 -105t19 -93t41 -79t74 -50t114 -20q124 0 221.5 66.5t148 172t50.5 226.5v500h86v-1024h-86v180q0 21 2 42t4 32l2 10h-4q-12 -32 -33.5 -67.5t-59.5 -75.5t-84 -72t-111 -53t-136 -21q-183 0 -260.5 98.5t-77.5 301.5zM545 1206l-162 228
h115l137 -228h-90z" />
    <glyph glyph-name="uacute" unicode="&#xfa;" horiz-adv-x="1187" 
d="M166 375v649h86v-618q0 -61 4 -105t19 -93t41 -79t74 -50t114 -20q124 0 221.5 66.5t148 172t50.5 226.5v500h86v-1024h-86v180q0 21 2 42t4 32l2 10h-4q-12 -32 -33.5 -67.5t-59.5 -75.5t-84 -72t-111 -53t-136 -21q-183 0 -260.5 98.5t-77.5 301.5zM541 1206l137 228
h115l-162 -228h-90z" />
    <glyph glyph-name="ucircumflex" unicode="&#xfb;" horiz-adv-x="1187" 
d="M166 375v649h86v-618q0 -61 4 -105t19 -93t41 -79t74 -50t114 -20q124 0 221.5 66.5t148 172t50.5 226.5v500h86v-1024h-86v180q0 21 2 42t4 32l2 10h-4q-12 -32 -33.5 -67.5t-59.5 -75.5t-84 -72t-111 -53t-136 -21q-183 0 -260.5 98.5t-77.5 301.5zM371 1206l164 228
h106l164 -228h-100l-115 164h-4l-115 -164h-100z" />
    <glyph glyph-name="udieresis" unicode="&#xfc;" horiz-adv-x="1187" 
d="M166 375v649h86v-618q0 -61 4 -105t19 -93t41 -79t74 -50t114 -20q124 0 221.5 66.5t148 172t50.5 226.5v500h86v-1024h-86v180q0 21 2 42t4 32l2 10h-4q-12 -32 -33.5 -67.5t-59.5 -75.5t-84 -72t-111 -53t-136 -21q-183 0 -260.5 98.5t-77.5 301.5zM682 1284v150h94
v-150h-94zM401 1284v150h95v-150h-95z" />
    <glyph glyph-name="yacute" unicode="&#xfd;" horiz-adv-x="1058" 
d="M84 -299q6 -5 17.5 -13.5t45 -22t64.5 -13.5q122 0 201 184l73 170l-424 1018h93l338 -817l36 -96h4q15 47 35 96l338 817h92l-526 -1264q-36 -85 -102 -137.5t-158 -52.5q-44 0 -85.5 14t-61.5 28l-19 15zM483 1206l138 228h114l-162 -228h-90z" />
    <glyph glyph-name="thorn" unicode="&#xfe;" horiz-adv-x="1183" 
d="M178 -410v1844h86v-523l-2 -82h4q38 95 137 157.5t228 62.5q203 0 322.5 -148t119.5 -389q0 -242 -127.5 -389.5t-327.5 -147.5q-113 0 -212 60t-142 162h-4q4 -38 4 -91v-516h-86zM262 510q0 -69 15 -134.5t45 -123t71.5 -101t99.5 -69t125 -25.5q156 0 260.5 123
t104.5 332q0 205 -99 329t-257 124q-73 0 -137 -26.5t-116 -79.5t-82 -143t-30 -206z" />
    <glyph glyph-name="ydieresis" unicode="&#xff;" horiz-adv-x="1058" 
d="M84 -299q6 -5 17.5 -13.5t45 -22t64.5 -13.5q122 0 201 184l73 170l-424 1018h93l338 -817l36 -96h4q15 47 35 96l338 817h92l-526 -1264q-36 -85 -102 -137.5t-158 -52.5q-44 0 -85.5 14t-61.5 28l-19 15zM625 1284v150h94v-150h-94zM344 1284v150h94v-150h-94z" />
    <glyph glyph-name="Amacron" unicode="&#x100;" horiz-adv-x="1277" 
d="M55 0l537 1434h94l537 -1434h-95l-186 496h-608l-184 -496h-95zM365 578h546l-217 581q-10 27 -23.5 70t-21.5 73l-8 29h-4q-30 -111 -53 -172zM395 1610v82h490v-82h-490z" />
    <glyph glyph-name="amacron" unicode="&#x101;" horiz-adv-x="1040" 
d="M84 272q0 56 16.5 103.5t42 81.5t66 61t79.5 44.5t92 30t93 18.5t93 9.5t82.5 4t70.5 0.5h67v34q0 306 -280 306q-161 0 -293 -99l-49 70q59 52 153.5 82.5t192.5 30.5q178 0 270 -98t92 -289v-662h-86v135q0 24 2 47t4 34l3 11h-4q-41 -107 -136.5 -179.5t-222.5 -72.5
q-64 0 -124.5 18t-111.5 53t-81.5 93.5t-30.5 132.5zM174 279q0 -89 69.5 -156.5t192.5 -67.5q80 0 148 39t111 102t67 139.5t24 153.5v56h-65q-41 0 -65.5 -0.5t-73 -2.5t-81 -6.5t-79.5 -14t-78 -22t-66 -33t-55.5 -46.5t-34.5 -62t-14 -79zM266 1280v82h490v-82h-490z
" />
    <glyph glyph-name="Abreve" unicode="&#x102;" horiz-adv-x="1277" 
d="M55 0l537 1434h94l537 -1434h-95l-186 496h-608l-184 -496h-95zM365 578h546l-217 581q-10 27 -23.5 70t-21.5 73l-8 29h-4q-30 -111 -53 -172zM639 1530q-85 0 -146 52.5t-61 148.5v32h82v-28q0 -64 35 -95.5t90 -31.5q54 0 89.5 32t35.5 97v26h82v-32q0 -96 -61 -148.5
t-146 -52.5z" />
    <glyph glyph-name="abreve" unicode="&#x103;" horiz-adv-x="1040" 
d="M84 272q0 56 16.5 103.5t42 81.5t66 61t79.5 44.5t92 30t93 18.5t93 9.5t82.5 4t70.5 0.5h67v34q0 306 -280 306q-161 0 -293 -99l-49 70q59 52 153.5 82.5t192.5 30.5q178 0 270 -98t92 -289v-662h-86v135q0 24 2 47t4 34l3 11h-4q-41 -107 -136.5 -179.5t-222.5 -72.5
q-64 0 -124.5 18t-111.5 53t-81.5 93.5t-30.5 132.5zM174 279q0 -89 69.5 -156.5t192.5 -67.5q80 0 148 39t111 102t67 139.5t24 153.5v56h-65q-41 0 -65.5 -0.5t-73 -2.5t-81 -6.5t-79.5 -14t-78 -22t-66 -33t-55.5 -46.5t-34.5 -62t-14 -79zM510 1200q-85 0 -146 52.5
t-61 148.5v33h82v-29q0 -64 35 -95.5t90 -31.5q54 0 89.5 32t35.5 97v27h82v-33q0 -96 -61 -148.5t-146 -52.5z" />
    <glyph glyph-name="Aogonek" unicode="&#x104;" horiz-adv-x="1277" 
d="M55 0l537 1434h94l537 -1434q-164 -122 -164 -223q0 -29 14.5 -51t35 -33.5t40.5 -19t35 -9.5l14 -2l-18 -80q-9 1 -23 2.5t-51 13.5t-65 30t-51 55t-23 86q0 77 47.5 139.5t107.5 105.5l-180 482h-608l-184 -496h-95zM365 578h546l-217 581q-10 27 -23.5 70t-21.5 73
l-8 29h-4q-30 -111 -53 -172z" />
    <glyph glyph-name="aogonek" unicode="&#x105;" horiz-adv-x="1040" 
d="M84 272q0 56 16.5 103.5t42 81.5t66 61t79.5 44.5t92 30t93 18.5t93 9.5t82.5 4t70.5 0.5h67v34q0 306 -280 306q-161 0 -293 -99l-49 70q59 52 153.5 82.5t192.5 30.5q178 0 270 -98t92 -289v-662q-163 -121 -163 -223q0 -29 14.5 -51t34.5 -33.5t40.5 -19t35.5 -9.5
l14 -2l-19 -80q-9 1 -23 2.5t-51 13.5t-65 30t-51 55t-23 86q0 127 170 245v121q0 24 2 47t4 34l3 11h-4q-41 -107 -136.5 -179.5t-222.5 -72.5q-64 0 -124.5 18t-111.5 53t-81.5 93.5t-30.5 132.5zM174 279q0 -89 69.5 -156.5t192.5 -67.5q80 0 148 39t111 102t67 139.5
t24 153.5v56h-65q-41 0 -65.5 -0.5t-73 -2.5t-81 -6.5t-79.5 -14t-78 -22t-66 -33t-55.5 -46.5t-34.5 -62t-14 -79z" />
    <glyph glyph-name="Cacute" unicode="&#x106;" horiz-adv-x="1472" 
d="M123 727q0 154 53 289.5t146 232.5t226 153t286 56q144 0 280 -44.5t232 -135.5l-54 -66q-86 77 -209 119.5t-247 42.5q-180 0 -322 -84t-220.5 -231.5t-78.5 -331.5q0 -139 46 -261.5t127 -212.5t199 -142t255 -52q134 0 262 50.5t223 144.5l55 -61q-226 -218 -540 -218
q-127 0 -239.5 38t-199.5 107t-150.5 162t-96.5 207t-33 238zM776 1536l137 227h115l-162 -227h-90z" />
    <glyph glyph-name="cacute" unicode="&#x107;" horiz-adv-x="1105" 
d="M106 510q0 119 42.5 221t115 171t169 108t202.5 39q103 0 202 -37.5t164 -108.5l-53 -69q-56 59 -140.5 95t-172.5 36q-185 0 -311.5 -126.5t-126.5 -328.5q0 -200 127 -325.5t311 -125.5q96 0 188 39t154 109l45 -72q-65 -73 -169 -116.5t-218 -43.5q-108 0 -204.5 38
t-168.5 106.5t-114 170t-42 220.5zM551 1206l137 228h115l-162 -228h-90z" />
    <glyph glyph-name="Ccircumflex" unicode="&#x108;" horiz-adv-x="1472" 
d="M123 727q0 154 53 289.5t146 232.5t226 153t286 56q144 0 280 -44.5t232 -135.5l-54 -66q-86 77 -209 119.5t-247 42.5q-180 0 -322 -84t-220.5 -231.5t-78.5 -331.5q0 -139 46 -261.5t127 -212.5t199 -142t255 -52q134 0 262 50.5t223 144.5l55 -61q-226 -218 -540 -218
q-127 0 -239.5 38t-199.5 107t-150.5 162t-96.5 207t-33 238zM606 1536l164 227h107l163 -227h-100l-115 164h-4l-114 -164h-101z" />
    <glyph glyph-name="ccircumflex" unicode="&#x109;" horiz-adv-x="1105" 
d="M106 510q0 119 42.5 221t115 171t169 108t202.5 39q103 0 202 -37.5t164 -108.5l-53 -69q-56 59 -140.5 95t-172.5 36q-185 0 -311.5 -126.5t-126.5 -328.5q0 -200 127 -325.5t311 -125.5q96 0 188 39t154 109l45 -72q-65 -73 -169 -116.5t-218 -43.5q-108 0 -204.5 38
t-168.5 106.5t-114 170t-42 220.5zM381 1206l164 228h106l164 -228h-100l-115 164h-4l-115 -164h-100z" />
    <glyph glyph-name="Cdotaccent" unicode="&#x10a;" horiz-adv-x="1472" 
d="M123 727q0 154 53 289.5t146 232.5t226 153t286 56q144 0 280 -44.5t232 -135.5l-54 -66q-86 77 -209 119.5t-247 42.5q-180 0 -322 -84t-220.5 -231.5t-78.5 -331.5q0 -139 46 -261.5t127 -212.5t199 -142t255 -52q134 0 262 50.5t223 144.5l55 -61q-226 -218 -540 -218
q-127 0 -239.5 38t-199.5 107t-150.5 162t-96.5 207t-33 238zM776 1614v149h94v-149h-94z" />
    <glyph glyph-name="cdotaccent" unicode="&#x10b;" horiz-adv-x="1105" 
d="M106 510q0 119 42.5 221t115 171t169 108t202.5 39q103 0 202 -37.5t164 -108.5l-53 -69q-56 59 -140.5 95t-172.5 36q-185 0 -311.5 -126.5t-126.5 -328.5q0 -200 127 -325.5t311 -125.5q96 0 188 39t154 109l45 -72q-65 -73 -169 -116.5t-218 -43.5q-108 0 -204.5 38
t-168.5 106.5t-114 170t-42 220.5zM551 1284v150h94v-150h-94z" />
    <glyph glyph-name="Ccaron" unicode="&#x10c;" horiz-adv-x="1472" 
d="M123 727q0 154 53 289.5t146 232.5t226 153t286 56q144 0 280 -44.5t232 -135.5l-54 -66q-86 77 -209 119.5t-247 42.5q-180 0 -322 -84t-220.5 -231.5t-78.5 -331.5q0 -139 46 -261.5t127 -212.5t199 -142t255 -52q134 0 262 50.5t223 144.5l55 -61q-226 -218 -540 -218
q-127 0 -239.5 38t-199.5 107t-150.5 162t-96.5 207t-33 238zM770 1536l-164 227h101l114 -164h4l115 164h100l-163 -227h-107z" />
    <glyph glyph-name="ccaron" unicode="&#x10d;" horiz-adv-x="1105" 
d="M106 510q0 119 42.5 221t115 171t169 108t202.5 39q103 0 202 -37.5t164 -108.5l-53 -69q-56 59 -140.5 95t-172.5 36q-185 0 -311.5 -126.5t-126.5 -328.5q0 -200 127 -325.5t311 -125.5q96 0 188 39t154 109l45 -72q-65 -73 -169 -116.5t-218 -43.5q-108 0 -204.5 38
t-168.5 106.5t-114 170t-42 220.5zM545 1206l-164 228h100l115 -164h4l115 164h100l-164 -228h-106z" />
    <glyph glyph-name="Dcaron" unicode="&#x10e;" horiz-adv-x="1511" 
d="M219 0v1434h451q324 0 519 -190.5t195 -526.5q0 -225 -90 -388t-250 -246t-374 -83h-451zM307 82h348q292 0 464.5 166t172.5 469q0 302 -173 468.5t-464 166.5h-348v-1270zM645 1536l-164 227h101l114 -164h4l115 164h100l-163 -227h-107z" />
    <glyph glyph-name="dcaron" unicode="&#x10f;" horiz-adv-x="1183" 
d="M111 512q0 242 127.5 389.5t330.5 147.5q116 0 211.5 -63.5t143.5 -168.5h4q-8 37 -8 84v533h86v-1434h-86v129q0 21 2 40.5t4 28.5l2 9h-4q-45 -100 -141 -166t-230 -66q-203 0 -322.5 148t-119.5 389zM201 512q0 -205 99 -329t257 -124q73 0 137 26.5t116 79.5t82 143
t30 206q0 118 -38 218t-121 166.5t-198 66.5q-156 0 -260 -122t-104 -331zM1143 1434h98q12 -53 12 -97q0 -76 -45 -178h-80q37 95 37 160q0 56 -22 115z" />
    <glyph glyph-name="Dcroat" unicode="&#x110;" horiz-adv-x="1523" 
d="M231 0v682h-122v82h122v670h451q325 0 520 -190.5t195 -526.5q0 -337 -195 -527t-520 -190h-451zM319 82h349q292 0 464.5 166t172.5 469q0 302 -173 468.5t-464 166.5h-349v-588h375v-82h-375v-600z" />
    <glyph glyph-name="dcroat" unicode="&#x111;" horiz-adv-x="1183" 
d="M111 512q0 242 127.5 389.5t330.5 147.5q114 0 209 -60t142 -162h4q-4 37 -4 84v254h-273v82h273v187h86v-187h170v-82h-170v-1165h-86v119l4 78h-4q-39 -93 -135 -157.5t-232 -64.5q-203 0 -322.5 148t-119.5 389zM201 512q0 -205 99 -329t257 -124q73 0 137 26.5
t116 79.5t82 143t30 206q0 118 -38 218.5t-121 167.5t-198 67q-156 0 -260 -123t-104 -332z" />
    <glyph glyph-name="Emacron" unicode="&#x112;" horiz-adv-x="1138" 
d="M219 0v1434h785v-82h-697v-588h572v-82h-572v-600h735v-82h-823zM393 1610v82h490v-82h-490z" />
    <glyph glyph-name="emacron" unicode="&#x113;" horiz-adv-x="1124" 
d="M106 510q0 126 41 229.5t110 170.5t158.5 103t188.5 36q101 0 182.5 -38t132 -103t77 -148t26.5 -178q0 -20 -4 -56h-821q0 -215 126 -341t312 -126q87 0 171.5 34t145.5 95l47 -71q-68 -65 -167 -103.5t-197 -38.5q-108 0 -204.5 38t-168.5 106.5t-114 170t-42 220.5z
M203 606h729q-7 178 -100 270.5t-230 92.5q-148 0 -260 -95t-139 -268zM365 1280v82h489v-82h-489z" />
    <glyph glyph-name="Ebreve" unicode="&#x114;" horiz-adv-x="1138" 
d="M219 0v1434h785v-82h-697v-588h572v-82h-572v-600h735v-82h-823zM637 1530q-85 0 -146 52.5t-61 148.5v32h82v-28q0 -64 35 -95.5t90 -31.5q54 0 89.5 32t35.5 97v26h82v-32q0 -96 -61 -148.5t-146 -52.5z" />
    <glyph glyph-name="ebreve" unicode="&#x115;" horiz-adv-x="1124" 
d="M106 510q0 126 41 229.5t110 170.5t158.5 103t188.5 36q101 0 182.5 -38t132 -103t77 -148t26.5 -178q0 -20 -4 -56h-821q0 -215 126 -341t312 -126q87 0 171.5 34t145.5 95l47 -71q-68 -65 -167 -103.5t-197 -38.5q-108 0 -204.5 38t-168.5 106.5t-114 170t-42 220.5z
M203 606h729q-7 178 -100 270.5t-230 92.5q-148 0 -260 -95t-139 -268zM608 1200q-85 0 -146 52.5t-61 148.5v33h82v-29q0 -64 35 -95.5t90 -31.5q54 0 89.5 32t35.5 97v27h82v-33q0 -96 -61 -148.5t-146 -52.5z" />
    <glyph glyph-name="Edotaccent" unicode="&#x116;" horiz-adv-x="1138" 
d="M219 0v1434h785v-82h-697v-588h572v-82h-572v-600h735v-82h-823zM590 1614v149h94v-149h-94z" />
    <glyph glyph-name="edotaccent" unicode="&#x117;" horiz-adv-x="1124" 
d="M106 510q0 126 41 229.5t110 170.5t158.5 103t188.5 36q101 0 182.5 -38t132 -103t77 -148t26.5 -178q0 -20 -4 -56h-821q0 -215 126 -341t312 -126q87 0 171.5 34t145.5 95l47 -71q-68 -65 -167 -103.5t-197 -38.5q-108 0 -204.5 38t-168.5 106.5t-114 170t-42 220.5z
M203 606h729q-7 178 -100 270.5t-230 92.5q-148 0 -260 -95t-139 -268zM561 1284v150h94v-150h-94z" />
    <glyph glyph-name="Eogonek" unicode="&#x118;" horiz-adv-x="1138" 
d="M219 0v1434h785v-82h-697v-588h572v-82h-572v-600h735v-82q-163 -121 -163 -223q0 -29 14.5 -51t34.5 -33.5t40.5 -19t35.5 -9.5l14 -2l-19 -80q-9 1 -23 2.5t-51 13.5t-65 30t-51 55t-23 86q0 122 152 231h-719z" />
    <glyph glyph-name="eogonek" unicode="&#x119;" horiz-adv-x="1126" 
d="M106 510q0 126 41 229.5t110 170.5t158.5 103t188.5 36q101 0 182.5 -38t132 -103t77 -148t26.5 -178l-4 -56h-821q0 -215 126 -341t312 -126q179 0 317 129l47 -71q-22 -21 -66.5 -53t-84 -61t-78.5 -64.5t-62.5 -77t-23.5 -84.5q0 -29 14.5 -51t35 -33.5t40.5 -19
t34 -9.5l15 -2l-18 -80q-9 1 -23 2.5t-51 13.5t-65 30t-51 55t-23 86q0 108 115 215q-45 -9 -72 -9q-108 0 -204.5 38t-168.5 106.5t-114 170t-42 220.5zM203 606h729q-7 178 -100 270.5t-230 92.5q-148 0 -260 -95t-139 -268z" />
    <glyph glyph-name="Ecaron" unicode="&#x11a;" horiz-adv-x="1138" 
d="M219 0v1434h785v-82h-697v-588h572v-82h-572v-600h735v-82h-823zM584 1536l-164 227h100l115 -164h4l115 164h100l-164 -227h-106z" />
    <glyph glyph-name="ecaron" unicode="&#x11b;" horiz-adv-x="1124" 
d="M106 510q0 126 41 229.5t110 170.5t158.5 103t188.5 36q101 0 182.5 -38t132 -103t77 -148t26.5 -178q0 -20 -4 -56h-821q0 -215 126 -341t312 -126q87 0 171.5 34t145.5 95l47 -71q-68 -65 -167 -103.5t-197 -38.5q-108 0 -204.5 38t-168.5 106.5t-114 170t-42 220.5z
M203 606h729q-7 178 -100 270.5t-230 92.5q-148 0 -260 -95t-139 -268zM555 1206l-164 228h101l114 -164h4l115 164h100l-163 -228h-107z" />
    <glyph glyph-name="Gcircumflex" unicode="&#x11c;" horiz-adv-x="1544" 
d="M123 717q0 204 93.5 374t257.5 268.5t364 98.5q137 0 268.5 -41t230.5 -121l-53 -67q-80 65 -202.5 105t-243.5 40q-177 0 -320 -86.5t-223 -236.5t-80 -334q0 -185 78 -335t218 -236.5t314 -86.5q138 0 268.5 64t223.5 172v276h-256v82h344v-653h-88v125l2 61h-4
q-83 -94 -213 -152.5t-277 -58.5t-277.5 58t-223.5 157t-147 236t-54 291zM598 1536l164 227h106l164 -227h-100l-115 164h-4l-115 -164h-100z" />
    <glyph glyph-name="gcircumflex" unicode="&#x11d;" horiz-adv-x="1169" 
d="M242 -274q59 -32 133 -52t141 -20q175 0 282 87.5t107 264.5v119q0 21 2 42t4 31l2 11h-4q-48 -98 -134.5 -153.5t-209.5 -55.5q-201 0 -327.5 145t-126.5 383q0 239 120 380t320 141q118 0 215.5 -50.5t140.5 -150.5h4q-6 14 -6 39v137h86v-1018q0 -113 -38.5 -199.5
t-105 -136.5t-148.5 -75t-177 -25q-164 0 -321 80zM201 528q0 -205 102 -324.5t268 -119.5q71 0 129 23.5t106 73.5t74.5 138.5t26.5 208.5q0 437 -356 437q-165 0 -257.5 -115t-92.5 -322zM354 1206l164 228h107l163 -228h-100l-115 164h-4l-114 -164h-101z" />
    <glyph glyph-name="Gbreve" unicode="&#x11e;" horiz-adv-x="1544" 
d="M123 717q0 204 93.5 374t257.5 268.5t364 98.5q137 0 268.5 -41t230.5 -121l-53 -67q-80 65 -202.5 105t-243.5 40q-177 0 -320 -86.5t-223 -236.5t-80 -334q0 -185 78 -335t218 -236.5t314 -86.5q138 0 268.5 64t223.5 172v276h-256v82h344v-653h-88v125l2 61h-4
q-83 -94 -213 -152.5t-277 -58.5t-277.5 58t-223.5 157t-147 236t-54 291zM815 1530q-85 0 -146 52.5t-61 148.5v32h82v-28q0 -64 35 -95.5t90 -31.5q54 0 89.5 32t35.5 97v26h82v-32q0 -96 -61 -148.5t-146 -52.5z" />
    <glyph glyph-name="gbreve" unicode="&#x11f;" horiz-adv-x="1169" 
d="M242 -274q59 -32 133 -52t141 -20q175 0 282 87.5t107 264.5v119q0 21 2 42t4 31l2 11h-4q-48 -98 -134.5 -153.5t-209.5 -55.5q-201 0 -327.5 145t-126.5 383q0 239 120 380t320 141q118 0 215.5 -50.5t140.5 -150.5h4q-6 14 -6 39v137h86v-1018q0 -113 -38.5 -199.5
t-105 -136.5t-148.5 -75t-177 -25q-164 0 -321 80zM201 528q0 -205 102 -324.5t268 -119.5q71 0 129 23.5t106 73.5t74.5 138.5t26.5 208.5q0 437 -356 437q-165 0 -257.5 -115t-92.5 -322zM571 1200q-84 0 -145 52.5t-61 148.5v33h81v-29q0 -64 35 -95.5t90 -31.5
q54 0 89.5 32t35.5 97v27h82v-33q0 -96 -61 -148.5t-146 -52.5z" />
    <glyph glyph-name="Gdotaccent" unicode="&#x120;" horiz-adv-x="1544" 
d="M123 717q0 204 93.5 374t257.5 268.5t364 98.5q137 0 268.5 -41t230.5 -121l-53 -67q-80 65 -202.5 105t-243.5 40q-177 0 -320 -86.5t-223 -236.5t-80 -334q0 -185 78 -335t218 -236.5t314 -86.5q138 0 268.5 64t223.5 172v276h-256v82h344v-653h-88v125l2 61h-4
q-83 -94 -213 -152.5t-277 -58.5t-277.5 58t-223.5 157t-147 236t-54 291zM768 1614v149h94v-149h-94z" />
    <glyph glyph-name="gdotaccent" unicode="&#x121;" horiz-adv-x="1169" 
d="M242 -274q59 -32 133 -52t141 -20q175 0 282 87.5t107 264.5v119q0 21 2 42t4 31l2 11h-4q-48 -98 -134.5 -153.5t-209.5 -55.5q-201 0 -327.5 145t-126.5 383q0 239 120 380t320 141q118 0 215.5 -50.5t140.5 -150.5h4q-6 14 -6 39v137h86v-1018q0 -113 -38.5 -199.5
t-105 -136.5t-148.5 -75t-177 -25q-164 0 -321 80zM201 528q0 -205 102 -324.5t268 -119.5q71 0 129 23.5t106 73.5t74.5 138.5t26.5 208.5q0 437 -356 437q-165 0 -257.5 -115t-92.5 -322zM524 1284v150h94v-150h-94z" />
    <glyph glyph-name="Gcommaaccent" unicode="&#x122;" horiz-adv-x="1544" 
d="M123 717q0 204 93.5 374t257.5 268.5t364 98.5q137 0 268.5 -41t230.5 -121l-53 -67q-80 65 -202.5 105t-243.5 40q-177 0 -320 -86.5t-223 -236.5t-80 -334q0 -185 78 -335t218 -236.5t314 -86.5q138 0 268.5 64t223.5 172v276h-256v82h344v-653h-88v125l2 61h-4
q-83 -94 -213 -152.5t-277 -58.5t-277.5 58t-223.5 157t-147 236t-54 291zM776 -135h98q13 -57 13 -96q0 -77 -45 -179h-80q37 95 37 160q0 53 -23 115z" />
    <glyph glyph-name="gcommaaccent" unicode="&#x123;" horiz-adv-x="1169" 
d="M242 -274q59 -32 133 -52t141 -20q175 0 282 87.5t107 264.5v119q0 21 2 42t4 31l2 11h-4q-48 -98 -134.5 -153.5t-209.5 -55.5q-201 0 -327.5 145t-126.5 383q0 239 120 380t320 141q118 0 215.5 -50.5t140.5 -150.5h4q-6 14 -6 39v137h86v-1018q0 -113 -38.5 -199.5
t-105 -136.5t-148.5 -75t-177 -25q-164 0 -321 80zM201 528q0 -205 102 -324.5t268 -119.5q71 0 129 23.5t106 73.5t74.5 138.5t26.5 208.5q0 437 -356 437q-165 0 -257.5 -115t-92.5 -322zM625 1159h-99q-12 53 -12 96q0 77 45 179h80q-37 -95 -37 -160q0 -53 23 -115z" />
    <glyph glyph-name="Hcircumflex" unicode="&#x124;" horiz-adv-x="1523" 
d="M219 0v1434h88v-674h910v674h88v-1434h-88v678h-910v-678h-88zM545 1536l164 227h106l164 -227h-100l-115 164h-4l-115 -164h-100z" />
    <glyph glyph-name="hcircumflex" unicode="&#x125;" horiz-adv-x="1200" 
d="M178 0v1434h86v-590q0 -21 -2 -42t-4 -32l-2 -10h4q12 32 34 67.5t60.5 75.5t86 72t114 53t139.5 21q97 0 164.5 -27.5t104.5 -82.5t53 -124.5t16 -165.5v-649h-86v618q0 61 -4 105t-19 93t-41 79t-74 50t-114 20q-116 0 -214 -58.5t-157 -165t-59 -237.5v-504h-86z
M6 1536l164 227h106l164 -227h-100l-115 164h-4l-115 -164h-100z" />
    <glyph glyph-name="Hbar" unicode="&#x126;" horiz-adv-x="1548" 
d="M231 0v1047h-133v81h133v306h88v-306h910v306h88v-306h133v-81h-133v-1047h-88v678h-910v-678h-88zM319 760h910v287h-910v-287z" />
    <glyph glyph-name="hbar" unicode="&#x127;" horiz-adv-x="1200" 
d="M178 0v1165h-166v82h166v187h86v-187h273v-82h-273v-311l-4 -84h4q11 31 33 66t60 73.5t84.5 69t113 50.5t139.5 20q97 0 164.5 -27.5t104.5 -82.5t53 -124.5t16 -165.5v-649h-86v618q0 61 -4 105t-19 93t-41 79t-74 50t-114 20q-120 0 -219.5 -62t-155 -166t-55.5 -227
v-510h-86z" />
    <glyph glyph-name="Itilde" unicode="&#x128;" horiz-adv-x="526" 
d="M219 0v1434h88v-1434h-88zM-31 1542q0 221 170 221q38 0 69.5 -15.5t53.5 -37.5t41.5 -44.5t43.5 -38t50 -15.5q25 0 43 15.5t25.5 40.5t10.5 46t3 43h82q0 -221 -170 -221q-38 0 -69.5 15.5t-53.5 38t-41.5 45t-43.5 38t-50 15.5q-33 0 -53 -28.5t-24.5 -57.5t-4.5 -60
h-82z" />
    <glyph glyph-name="itilde" unicode="&#x129;" horiz-adv-x="442" 
d="M178 0v1024h86v-1024h-86zM-72 1212q0 222 170 222q38 0 69.5 -15.5t53.5 -38t41.5 -45t43.5 -38t50 -15.5q25 0 43 15.5t25.5 40.5t10.5 46t3 43h82q0 -221 -170 -221q-38 0 -69.5 15.5t-53.5 38t-41.5 45t-43.5 38t-50 15.5q-33 0 -53 -28.5t-24.5 -57.5t-4.5 -60h-82z
" />
    <glyph glyph-name="Imacron" unicode="&#x12a;" horiz-adv-x="526" 
d="M219 0v1434h88v-1434h-88zM20 1610v82h490v-82h-490z" />
    <glyph glyph-name="imacron" unicode="&#x12b;" horiz-adv-x="442" 
d="M178 0v1024h86v-1024h-86zM-23 1280v82h490v-82h-490z" />
    <glyph glyph-name="Ibreve" unicode="&#x12c;" horiz-adv-x="526" 
d="M219 0v1434h88v-1434h-88zM264 1530q-85 0 -146 52.5t-61 148.5v32h82v-28q0 -64 35 -95.5t90 -31.5q54 0 89.5 32t35.5 97v26h82v-32q0 -96 -61 -148.5t-146 -52.5z" />
    <glyph glyph-name="ibreve" unicode="&#x12d;" horiz-adv-x="442" 
d="M178 0v1024h86v-1024h-86zM223 1200q-85 0 -146 52.5t-61 148.5v33h82v-29q0 -64 35 -95.5t90 -31.5q54 0 89.5 32t35.5 97v27h82v-33q0 -96 -61 -148.5t-146 -52.5z" />
    <glyph glyph-name="Iogonek" unicode="&#x12e;" horiz-adv-x="526" 
d="M51 -231q0 74 53 139.5t115 107.5v1418h88v-1434q-164 -122 -164 -223q0 -29 14.5 -51t35 -33.5t41 -19t34.5 -9.5l15 -2l-19 -80q-9 1 -23 2.5t-51 13.5t-65 30t-51 55t-23 86z" />
    <glyph glyph-name="iogonek" unicode="&#x12f;" horiz-adv-x="444" 
d="M10 -231q0 127 170 245v1010h86v-1024q-164 -122 -164 -223q0 -29 14.5 -51t35 -33.5t41 -19t35.5 -9.5l14 -2l-19 -80q-9 1 -23 2.5t-51 13.5t-65 30t-51 55t-23 86zM172 1284v150h102v-150h-102z" />
    <glyph glyph-name="Idotaccent" unicode="&#x130;" horiz-adv-x="526" 
d="M219 0v1434h88v-1434h-88zM217 1614v149h94v-149h-94z" />
    <glyph glyph-name="dotlessi" unicode="&#x131;" horiz-adv-x="442" 
d="M178 0v1024h86v-1024h-86z" />
    <glyph glyph-name="IJ" unicode="&#x132;" horiz-adv-x="1138" 
d="M530 -10v86q48 0 87.5 7t84 30.5t74.5 62t50 108t20 162.5v988h88v-988q0 -456 -404 -456zM219 0v1434h88v-1434h-88z" />
    <glyph glyph-name="ij" unicode="&#x133;" horiz-adv-x="884" 
d="M170 1284v150h102v-150h-102zM178 0v1024h86v-1024h-86zM612 1284v150h103v-150h-103zM621 -43v1067h86v-1065q0 -97 -24.5 -169.5t-59.5 -111t-83 -62t-84.5 -30t-74.5 -6.5q-15 0 -51 4v80q12 -4 45 -4q30 0 58 5t63.5 24t62 49.5t44.5 87t18 131.5z" />
    <glyph glyph-name="Jcircumflex" unicode="&#x134;" horiz-adv-x="1042" 
d="M72 391v45h88v-47q0 -91 30 -163.5t98 -119.5t165 -47q58 0 108.5 17.5t94 54t69 103t25.5 155.5v963h-342v82h430v-1043q0 -110 -33 -193.5t-89.5 -130.5t-122 -69.5t-138.5 -22.5t-138.5 22.5t-122 69.5t-89.5 130.5t-33 193.5zM406 1536l163 227h107l164 -227h-101
l-114 164h-4l-115 -164h-100z" />
    <glyph glyph-name="jcircumflex" unicode="&#x135;" horiz-adv-x="442" 
d="M-4 1206l164 228h106l164 -228h-100l-115 164h-4l-115 -164h-100zM178 -43v1067h86v-1065q0 -97 -24.5 -169.5t-59.5 -111t-82.5 -62t-84 -30t-74.5 -6.5q-34 0 -52 4v80q28 -4 45 -4q30 0 58 5t63.5 24t62 49.5t44.5 87t18 131.5z" />
    <glyph glyph-name="Kcommaaccent" unicode="&#x136;" horiz-adv-x="1167" 
d="M219 0v1434h88v-639h266l410 639h107l-441 -676v-4l469 -754h-106l-439 713h-266v-713h-88zM565 -135h99q12 -53 12 -96q0 -77 -45 -179h-80q37 95 37 160q0 53 -23 115z" />
    <glyph glyph-name="kcommaaccent" unicode="&#x137;" horiz-adv-x="968" 
d="M178 0v1434h86v-813h182l332 403h113l-371 -440v-4l406 -580h-109l-371 541h-182v-541h-86zM461 -135h98q12 -53 12 -96q0 -77 -45 -179h-80q37 95 37 160q0 56 -22 115z" />
    <glyph glyph-name="kgreenlandic" unicode="&#x138;" horiz-adv-x="964" 
d="M178 0v1024h86v-436h176l355 436h116l-391 -471v-4l385 -549h-112l-353 512h-176v-512h-86z" />
    <glyph glyph-name="Lacute" unicode="&#x139;" horiz-adv-x="1040" 
d="M219 0v1434h88v-1352h684v-82h-772zM217 1536l137 227h115l-162 -227h-90z" />
    <glyph glyph-name="lacute" unicode="&#x13a;" horiz-adv-x="464" 
d="M178 207v1227h86v-1201q0 -159 121 -159q19 0 31 2v-80q-16 -4 -37 -4q-22 0 -44 3.5t-52 17t-52 35.5t-37.5 63t-15.5 96zM178 1536l137 227h115l-162 -227h-90z" />
    <glyph glyph-name="Lcommaaccent" unicode="&#x13b;" horiz-adv-x="1040" 
d="M219 0v1434h88v-1352h684v-82h-772zM569 -135h99q12 -53 12 -96q0 -77 -45 -179h-80q37 95 37 160q0 53 -23 115z" />
    <glyph glyph-name="lcommaaccent" unicode="&#x13c;" horiz-adv-x="464" 
d="M178 207v1227h86v-1201q0 -159 121 -159q19 0 31 2v-80q-16 -4 -37 -4q-22 0 -44 3.5t-52 17t-52 35.5t-37.5 63t-15.5 96zM238 -135h98q12 -52 12 -96q0 -77 -45 -179h-80q37 95 37 160q0 56 -22 115z" />
    <glyph glyph-name="Lcaron" unicode="&#x13d;" horiz-adv-x="1040" 
d="M219 0v1434h88v-1352h684v-82h-772zM506 1434h98q12 -53 12 -97q0 -76 -45 -178h-79q36 92 36 160q0 56 -22 115z" />
    <glyph glyph-name="lcaron" unicode="&#x13e;" horiz-adv-x="464" 
d="M178 207v1227h86v-1201q0 -159 121 -159q19 0 31 2v-80q-16 -4 -37 -4q-22 0 -44 3.5t-52 17t-52 35.5t-37.5 63t-15.5 96zM403 1434h99q12 -53 12 -97q0 -76 -45 -178h-80q37 95 37 160q0 53 -23 115z" />
    <glyph glyph-name="Ldot" unicode="&#x13f;" horiz-adv-x="1040" 
d="M219 0v1434h88v-1352h684v-82h-772zM580 684v129h125v-129h-125z" />
    <glyph glyph-name="ldot" unicode="&#x140;" horiz-adv-x="477" 
d="M178 207v1227h86v-1201q0 -159 121 -159q19 0 31 2v-80q-16 -4 -37 -4q-22 0 -44 3.5t-52 17t-52 35.5t-37.5 63t-15.5 96zM397 684v129h125v-129h-125z" />
    <glyph glyph-name="Lslash" unicode="&#x141;" horiz-adv-x="1052" 
d="M231 0v758l-133 -76v96l133 76v580h88v-529l236 137v-98l-236 -135v-727h685v-82h-773z" />
    <glyph glyph-name="lslash" unicode="&#x142;" horiz-adv-x="514" 
d="M31 682v96l182 105v551h86v-500l188 108v-98l-188 -108v-603q0 -159 121 -159l31 2v-80q-19 -4 -37 -4q-22 0 -44 3.5t-52 17t-52 35.5t-37.5 63t-15.5 96v579z" />
    <glyph glyph-name="Nacute" unicode="&#x143;" horiz-adv-x="1536" 
d="M219 0v1434h82l817 -1125q21 -29 50 -74t48 -75l19 -31h4q-10 108 -10 180v1125h88v-1434h-82l-817 1124q-21 29 -50 74.5t-48 75.5l-19 31h-4q10 -109 10 -181v-1124h-88zM721 1536l137 227h115l-162 -227h-90z" />
    <glyph glyph-name="nacute" unicode="&#x144;" horiz-adv-x="1200" 
d="M178 0v1024h86v-180q0 -21 -2 -42t-4 -32l-2 -10h4q12 32 34 67.5t60.5 75.5t86 72t114 53t139.5 21q97 0 164.5 -27.5t104.5 -82.5t53 -124.5t16 -165.5v-649h-86v618q0 61 -4 105t-19 93t-41 79t-74 50t-114 20q-177 0 -303.5 -130.5t-126.5 -324.5v-510h-86zM582 1206
l137 228h115l-162 -228h-90z" />
    <glyph glyph-name="Ncommaaccent" unicode="&#x145;" horiz-adv-x="1536" 
d="M219 0v1434h82l817 -1125q21 -29 50 -74t48 -75l19 -31h4q-10 108 -10 180v1125h88v-1434h-82l-817 1124q-21 29 -50 74.5t-48 75.5l-19 31h-4q10 -109 10 -181v-1124h-88zM717 -135h98q12 -53 12 -96q0 -77 -45 -179h-80q37 95 37 160q0 56 -22 115z" />
    <glyph glyph-name="ncommaaccent" unicode="&#x146;" horiz-adv-x="1200" 
d="M178 0v1024h86v-180q0 -21 -2 -42t-4 -32l-2 -10h4q12 32 34 67.5t60.5 75.5t86 72t114 53t139.5 21q97 0 164.5 -27.5t104.5 -82.5t53 -124.5t16 -165.5v-649h-86v618q0 61 -4 105t-19 93t-41 79t-74 50t-114 20q-177 0 -303.5 -130.5t-126.5 -324.5v-510h-86zM555 -135
h98q13 -57 13 -96q0 -77 -45 -179h-80q37 95 37 160q0 53 -23 115z" />
    <glyph glyph-name="Ncaron" unicode="&#x147;" horiz-adv-x="1536" 
d="M219 0v1434h82l817 -1125q21 -29 50 -74t48 -75l19 -31h4q-10 108 -10 180v1125h88v-1434h-82l-817 1124q-21 29 -50 74.5t-48 75.5l-19 31h-4q10 -109 10 -181v-1124h-88zM715 1536l-164 227h100l115 -164h4l115 164h100l-164 -227h-106z" />
    <glyph glyph-name="ncaron" unicode="&#x148;" horiz-adv-x="1200" 
d="M178 0v1024h86v-180q0 -21 -2 -42t-4 -32l-2 -10h4q12 32 34 67.5t60.5 75.5t86 72t114 53t139.5 21q97 0 164.5 -27.5t104.5 -82.5t53 -124.5t16 -165.5v-649h-86v618q0 61 -4 105t-19 93t-41 79t-74 50t-114 20q-177 0 -303.5 -130.5t-126.5 -324.5v-510h-86zM575 1206
l-163 228h100l115 -164h4l114 164h101l-164 -228h-107z" />
    <glyph glyph-name="napostrophe" unicode="&#x149;" horiz-adv-x="1200" 
d="M178 0v1024h86v-180q0 -21 -2 -42t-4 -32l-2 -10h4q12 32 34 67.5t60.5 75.5t86 72t114 53t139.5 21q97 0 164.5 -27.5t104.5 -82.5t53 -124.5t16 -165.5v-649h-86v618q0 61 -4 105t-19 93t-41 79t-74 50t-114 20q-177 0 -303.5 -130.5t-126.5 -324.5v-510h-86zM63 1434
h99q12 -52 12 -97q0 -76 -45 -178h-80q37 95 37 160q0 53 -23 115z" />
    <glyph glyph-name="Eng" unicode="&#x14a;" horiz-adv-x="1536" 
d="M219 0v1434h82l817 -1125q21 -29 50 -74t48 -75l19 -31h4q-10 108 -10 180v1125h88v-1438q0 -110 -33 -193.5t-89.5 -130.5t-122 -69.5t-138.5 -22.5v86q44 0 85 10.5t80 35.5t67 63t45.5 98t17.5 135l-811 1116q-21 29 -50 74.5t-48 75.5l-19 31h-4q10 -109 10 -181
v-1124h-88z" />
    <glyph glyph-name="eng" unicode="&#x14b;" horiz-adv-x="1200" 
d="M178 0v1024h86v-170l-4 -84h4q11 31 33 66t60 73.5t84.5 69t113 50.5t139.5 20q97 0 164.5 -27.5t104.5 -82.5t53 -124.5t16 -165.5v-700q0 -97 -24.5 -169.5t-59.5 -111t-82.5 -62t-84 -30t-74.5 -6.5l-52 4v80q18 -4 45 -4q30 0 58 5t63.5 24t62 49.5t44.5 87t18 131.5
v671q0 61 -4 105t-19 93t-41 79t-74 50t-114 20q-120 0 -219.5 -62t-155 -166t-55.5 -227v-510h-86z" />
    <glyph glyph-name="Omacron" unicode="&#x14c;" horiz-adv-x="1691" 
d="M121 727q0 152 56 287.5t152 233t230.5 154t286.5 56.5t286.5 -56.5t230.5 -154t152 -233t56 -287.5q0 -208 -94.5 -380.5t-261 -272t-369.5 -99.5t-369.5 99.5t-261 272t-94.5 380.5zM213 727q0 -186 82 -339t227.5 -241t323.5 -88t323.5 88t227.5 241t82 339
q0 136 -48.5 256t-132 205.5t-201 135.5t-251.5 50t-251.5 -50t-201 -135.5t-132 -205.5t-48.5 -256zM602 1610v82h490v-82h-490z" />
    <glyph glyph-name="omacron" unicode="&#x14d;" horiz-adv-x="1269" 
d="M104 518q0 147 71 269t193 192t267 70t266.5 -70t192.5 -192t71 -269q0 -150 -71 -275t-192.5 -196.5t-266.5 -71.5q-108 0 -206 42.5t-169.5 114.5t-113.5 173t-42 213zM195 518q0 -194 128 -326.5t312 -132.5t312 132.5t128 326.5q0 189 -128 318t-312 129t-312 -129
t-128 -318zM391 1280v82h490v-82h-490z" />
    <glyph glyph-name="Obreve" unicode="&#x14e;" horiz-adv-x="1691" 
d="M121 727q0 152 56 287.5t152 233t230.5 154t286.5 56.5t286.5 -56.5t230.5 -154t152 -233t56 -287.5q0 -208 -94.5 -380.5t-261 -272t-369.5 -99.5t-369.5 99.5t-261 272t-94.5 380.5zM213 727q0 -186 82 -339t227.5 -241t323.5 -88t323.5 88t227.5 241t82 339
q0 136 -48.5 256t-132 205.5t-201 135.5t-251.5 50t-251.5 -50t-201 -135.5t-132 -205.5t-48.5 -256zM846 1530q-85 0 -146 52.5t-61 148.5v32h82v-28q0 -64 35 -95.5t90 -31.5q54 0 89.5 32t35.5 97v26h82v-32q0 -96 -61 -148.5t-146 -52.5z" />
    <glyph glyph-name="obreve" unicode="&#x14f;" horiz-adv-x="1269" 
d="M104 518q0 147 71 269t193 192t267 70t266.5 -70t192.5 -192t71 -269q0 -150 -71 -275t-192.5 -196.5t-266.5 -71.5q-108 0 -206 42.5t-169.5 114.5t-113.5 173t-42 213zM195 518q0 -194 128 -326.5t312 -132.5t312 132.5t128 326.5q0 189 -128 318t-312 129t-312 -129
t-128 -318zM635 1200q-85 0 -146 52.5t-61 148.5v33h82v-29q0 -64 35 -95.5t90 -31.5q54 0 89.5 32t35.5 97v27h82v-33q0 -96 -61 -148.5t-146 -52.5z" />
    <glyph glyph-name="Ohungarumlaut" unicode="&#x150;" horiz-adv-x="1691" 
d="M121 727q0 152 56 287.5t152 233t230.5 154t286.5 56.5t286.5 -56.5t230.5 -154t152 -233t56 -287.5q0 -208 -94.5 -380.5t-261 -272t-369.5 -99.5t-369.5 99.5t-261 272t-94.5 380.5zM213 727q0 -186 82 -339t227.5 -241t323.5 -88t323.5 88t227.5 241t82 339
q0 136 -48.5 256t-132 205.5t-201 135.5t-251.5 50t-251.5 -50t-201 -135.5t-132 -205.5t-48.5 -256zM887 1536l137 227h115l-162 -227h-90zM651 1536l127 227h103l-133 -227h-97z" />
    <glyph glyph-name="ohungarumlaut" unicode="&#x151;" horiz-adv-x="1269" 
d="M104 518q0 147 71 269t193 192t267 70t266.5 -70t192.5 -192t71 -269q0 -150 -71 -275t-192.5 -196.5t-266.5 -71.5q-108 0 -206 42.5t-169.5 114.5t-113.5 173t-42 213zM195 518q0 -194 128 -326.5t312 -132.5t312 132.5t128 326.5q0 189 -128 318t-312 129t-312 -129
t-128 -318zM676 1206l137 228h115l-162 -228h-90zM440 1206l127 228h103l-133 -228h-97z" />
    <glyph glyph-name="OE" unicode="&#x152;" horiz-adv-x="1906" 
d="M123 717q0 154 53.5 289.5t147.5 234.5t229 156t291 57q36 0 122.5 -10t114.5 -10h691v-82h-697v-588h572v-82h-572v-600h735v-82h-727q-27 0 -114.5 -10t-124.5 -10q-208 0 -373.5 97t-256.5 265.5t-91 374.5zM215 717q0 -185 77.5 -333.5t221.5 -234.5t330 -86
q34 0 69.5 4.5t54.5 8.5l19 4v1274q-67 16 -143 16q-186 0 -330 -86t-221.5 -234.5t-77.5 -332.5z" />
    <glyph glyph-name="oe" unicode="&#x153;" horiz-adv-x="2093" 
d="M106 510q0 119 42.5 221t115 171t169 108t202.5 39q157 0 286.5 -82.5t192.5 -223.5h4q59 146 181.5 226t273.5 80q101 0 182.5 -38t132 -103t77 -148t26.5 -178l-4 -56h-822q6 -221 131.5 -344t307.5 -123q87 0 169.5 33.5t147.5 95.5l47 -71q-68 -65 -166.5 -103.5
t-197.5 -38.5q-162 0 -292.5 82t-191.5 226h-4q-63 -144 -192.5 -226t-288.5 -82q-107 0 -203 38.5t-168.5 106.5t-115 169.5t-42.5 220.5zM1171 606h730q-7 178 -100 270.5t-230 92.5q-148 0 -260.5 -95t-139.5 -268zM197 510q0 -200 127 -325.5t311 -125.5
q185 0 312.5 127t127.5 334q0 131 -61.5 234t-161.5 157t-217 54q-184 0 -311 -127.5t-127 -327.5z" />
    <glyph glyph-name="Racute" unicode="&#x154;" horiz-adv-x="1243" 
d="M219 0v1434h420q173 0 258 -43q92 -46 145.5 -135t53.5 -209q0 -152 -79.5 -260t-207.5 -136v-4q15 -16 33 -51l321 -596h-104l-340 635h-412v-635h-88zM307 717h389q140 0 224 91.5t84 238.5q0 95 -45 168t-123 108q-66 29 -201 29h-328v-635zM561 1536l137 227h115
l-162 -227h-90z" />
    <glyph glyph-name="racute" unicode="&#x155;" horiz-adv-x="696" 
d="M178 0v1024h86v-195q0 -21 -2 -42t-4 -31l-2 -11h4q41 126 126.5 206.5t201.5 80.5q32 0 59 -6v-86q-12 4 -47 4q-86 0 -153 -48.5t-105.5 -125t-58 -161t-19.5 -167.5v-442h-86zM373 1206l137 228h115l-162 -228h-90z" />
    <glyph glyph-name="Rcommaaccent" unicode="&#x156;" horiz-adv-x="1243" 
d="M219 0v1434h420q173 0 258 -43q92 -46 145.5 -135t53.5 -209q0 -152 -79.5 -260t-207.5 -136v-4q15 -16 33 -51l321 -596h-104l-340 635h-412v-635h-88zM307 717h389q140 0 224 91.5t84 238.5q0 95 -45 168t-123 108q-66 29 -201 29h-328v-635zM598 -135h98
q13 -57 13 -96q0 -77 -45 -179h-80q37 95 37 160q0 53 -23 115z" />
    <glyph glyph-name="rcommaaccent" unicode="&#x157;" horiz-adv-x="696" 
d="M178 0v1024h86v-195q0 -21 -2 -42t-4 -31l-2 -11h4q41 126 126.5 206.5t201.5 80.5q32 0 59 -6v-86q-12 4 -47 4q-86 0 -153 -48.5t-105.5 -125t-58 -161t-19.5 -167.5v-442h-86zM174 -135h98q13 -57 13 -96q0 -77 -45 -179h-80q37 95 37 160q0 53 -23 115z" />
    <glyph glyph-name="Rcaron" unicode="&#x158;" horiz-adv-x="1243" 
d="M219 0v1434h420q173 0 258 -43q92 -46 145.5 -135t53.5 -209q0 -152 -79.5 -260t-207.5 -136v-4q15 -16 33 -51l321 -596h-104l-340 635h-412v-635h-88zM307 717h389q140 0 224 91.5t84 238.5q0 95 -45 168t-123 108q-66 29 -201 29h-328v-635zM555 1536l-164 227h101
l114 -164h4l115 164h100l-163 -227h-107z" />
    <glyph glyph-name="rcaron" unicode="&#x159;" horiz-adv-x="696" 
d="M178 0v1024h86v-195q0 -21 -2 -42t-4 -31l-2 -11h4q41 126 126.5 206.5t201.5 80.5q32 0 59 -6v-86q-12 4 -47 4q-86 0 -153 -48.5t-105.5 -125t-58 -161t-19.5 -167.5v-442h-86zM367 1206l-164 228h100l115 -164h4l115 164h100l-164 -228h-106z" />
    <glyph glyph-name="Sacute" unicode="&#x15a;" horiz-adv-x="1073" 
d="M106 154l60 67q72 -72 172 -116t205 -44q143 0 234 77.5t91 205.5q0 64 -25 116t-67.5 89t-97.5 68t-116 57.5t-121.5 53.5t-115.5 60.5t-97.5 74t-67.5 98.5t-25 129q0 165 123.5 266.5t308.5 101.5q100 0 198 -34.5t165 -98.5l-49 -76q-58 57 -144.5 90t-173.5 33
q-89 0 -165 -32t-123.5 -96t-47.5 -148q0 -61 25 -110.5t67.5 -84t97.5 -64t116 -55t122 -52.5t116 -62t97.5 -76.5t67.5 -102.5t25 -135q0 -165 -114 -272t-306 -107q-121 0 -235.5 47t-199.5 132zM494 1536l137 227h114l-161 -227h-90z" />
    <glyph glyph-name="sacute" unicode="&#x15b;" horiz-adv-x="880" 
d="M84 123l55 65q58 -61 143.5 -95t174.5 -34q99 0 167 51t68 142q0 52 -31 92.5t-80.5 66.5t-109.5 49t-120.5 49.5t-110 58.5t-80.5 84t-31 120q0 131 95 204t233 73q86 0 167 -27t136 -84l-51 -70q-43 46 -114 71.5t-144 25.5q-97 0 -164.5 -47t-67.5 -140q0 -47 24 -85
t64 -61.5t90.5 -47t103 -41.5t103 -45t90.5 -57.5t64 -79t24 -109.5q0 -122 -92.5 -199.5t-234.5 -77.5q-104 0 -204 37.5t-167 110.5zM403 1206l138 228h114l-161 -228h-91z" />
    <glyph glyph-name="Scircumflex" unicode="&#x15c;" horiz-adv-x="1073" 
d="M106 154l60 67q72 -72 172 -116t205 -44q143 0 234 77.5t91 205.5q0 64 -25 116t-67.5 89t-97.5 68t-116 57.5t-121.5 53.5t-115.5 60.5t-97.5 74t-67.5 98.5t-25 129q0 165 123.5 266.5t308.5 101.5q100 0 198 -34.5t165 -98.5l-49 -76q-58 57 -144.5 90t-173.5 33
q-89 0 -165 -32t-123.5 -96t-47.5 -148q0 -61 25 -110.5t67.5 -84t97.5 -64t116 -55t122 -52.5t116 -62t97.5 -76.5t67.5 -102.5t25 -135q0 -165 -114 -272t-306 -107q-121 0 -235.5 47t-199.5 132zM326 1536l163 227h107l164 -227h-101l-114 164h-4l-115 -164h-100z" />
    <glyph glyph-name="scircumflex" unicode="&#x15d;" horiz-adv-x="880" 
d="M84 123l55 65q58 -61 143.5 -95t174.5 -34q99 0 167 51t68 142q0 52 -31 92.5t-80.5 66.5t-109.5 49t-120.5 49.5t-110 58.5t-80.5 84t-31 120q0 131 95 204t233 73q86 0 167 -27t136 -84l-51 -70q-43 46 -114 71.5t-144 25.5q-97 0 -164.5 -47t-67.5 -140q0 -47 24 -85
t64 -61.5t90.5 -47t103 -41.5t103 -45t90.5 -57.5t64 -79t24 -109.5q0 -122 -92.5 -199.5t-234.5 -77.5q-104 0 -204 37.5t-167 110.5zM236 1206l163 228h107l164 -228h-101l-114 164h-4l-115 -164h-100z" />
    <glyph glyph-name="Scedilla" unicode="&#x15e;" horiz-adv-x="1075" 
d="M467 -190l35 167q-111 6 -215.5 52.5t-180.5 124.5l60 67q72 -72 172 -116t205 -44q143 0 234 77.5t91 205.5q0 64 -25 116t-67.5 89t-97.5 68t-116 57.5t-121.5 53.5t-115.5 60.5t-97.5 74t-67.5 98.5t-25 129q0 165 123.5 266.5t308.5 101.5q100 0 198 -34.5t165 -98.5
l-49 -76q-58 57 -144.5 90t-173.5 33q-89 0 -165 -32t-123.5 -96t-47.5 -148q0 -61 25 -110.5t67.5 -84t97.5 -64t116 -55t122 -52.5t116 -62t97.5 -76.5t67.5 -102.5t25 -135q0 -158 -104 -263t-282 -114l-18 -100q64 -9 102.5 -46.5t38.5 -92.5q0 -79 -53 -117.5
t-133 -38.5q-51 0 -90 8v78q33 -10 84 -10q110 0 110 76q0 36 -32.5 57t-91.5 21z" />
    <glyph glyph-name="scedilla" unicode="&#x15f;" horiz-adv-x="884" 
d="M375 -190l35 167q-93 8 -179 45t-145 101l55 65q58 -61 143.5 -95t174.5 -34q99 0 167 51t68 142q0 52 -31 92.5t-80.5 66.5t-109.5 49t-120.5 49.5t-110 58.5t-80.5 84t-31 120q0 131 95 204t233 73q86 0 167 -27t136 -84l-51 -70q-43 46 -114 71.5t-144 25.5
q-97 0 -164.5 -47t-67.5 -140q0 -47 24 -85t64 -61.5t90.5 -47t103 -41.5t103 -45t90.5 -57.5t64 -79t24 -109.5q0 -116 -84.5 -191.5t-216.5 -83.5l-18 -100q64 -9 102.5 -46.5t38.5 -92.5q0 -79 -53 -117.5t-133 -38.5q-51 0 -90 8v78q33 -10 84 -10q110 0 110 76
q0 36 -33 57t-92 21z" />
    <glyph glyph-name="Scaron" unicode="&#x160;" horiz-adv-x="1073" 
d="M106 154l60 67q72 -72 172 -116t205 -44q143 0 234 77.5t91 205.5q0 64 -25 116t-67.5 89t-97.5 68t-116 57.5t-121.5 53.5t-115.5 60.5t-97.5 74t-67.5 98.5t-25 129q0 165 123.5 266.5t308.5 101.5q100 0 198 -34.5t165 -98.5l-49 -76q-58 57 -144.5 90t-173.5 33
q-89 0 -165 -32t-123.5 -96t-47.5 -148q0 -61 25 -110.5t67.5 -84t97.5 -64t116 -55t122 -52.5t116 -62t97.5 -76.5t67.5 -102.5t25 -135q0 -165 -114 -272t-306 -107q-121 0 -235.5 47t-199.5 132zM489 1536l-163 227h100l115 -164h4l114 164h101l-164 -227h-107z" />
    <glyph glyph-name="scaron" unicode="&#x161;" horiz-adv-x="880" 
d="M84 123l55 65q58 -61 143.5 -95t174.5 -34q99 0 167 51t68 142q0 52 -31 92.5t-80.5 66.5t-109.5 49t-120.5 49.5t-110 58.5t-80.5 84t-31 120q0 131 95 204t233 73q86 0 167 -27t136 -84l-51 -70q-43 46 -114 71.5t-144 25.5q-97 0 -164.5 -47t-67.5 -140q0 -47 24 -85
t64 -61.5t90.5 -47t103 -41.5t103 -45t90.5 -57.5t64 -79t24 -109.5q0 -122 -92.5 -199.5t-234.5 -77.5q-104 0 -204 37.5t-167 110.5zM399 1206l-163 228h100l115 -164h4l114 164h101l-164 -228h-107z" />
    <glyph glyph-name="Tcommaaccent" unicode="&#x162;" horiz-adv-x="1230" 
d="M571 0v1352h-534v82h1157v-82h-535v-1352h-10l-22 -123q64 -9 102.5 -46.5t38.5 -92.5q0 -79 -53 -117.5t-133 -38.5q-51 0 -90 8v78q33 -10 83 -10q111 0 111 76q0 36 -33 57t-92 21l-24 -2l41 190h-7z" />
    <glyph glyph-name="tcommaaccent" unicode="&#x163;" horiz-adv-x="622" 
d="M311 -190l49 225q-151 87 -151 336v569h-135v78h135v291h86v-291h268v-78h-268v-563q0 -77 18 -135t44 -89.5t61.5 -50.5t63.5 -24.5t57 -5.5q31 0 47 4v-80q-16 -4 -51 -4q-54 0 -111 14l-23 -129q64 -9 103 -46.5t39 -92.5q0 -79 -53.5 -117.5t-133.5 -38.5
q-51 0 -90 8v78q33 -10 84 -10q111 0 111 76q0 36 -33 57t-92 21z" />
    <glyph glyph-name="Tcaron" unicode="&#x164;" horiz-adv-x="1230" 
d="M571 0v1352h-534v82h1157v-82h-535v-1352h-88zM561 1536l-164 227h101l114 -164h4l115 164h100l-163 -227h-107z" />
    <glyph glyph-name="tcaron" unicode="&#x165;" horiz-adv-x="622" 
d="M209 371v569h-135v78h135v291h86v-291h268v-78h-268v-563q0 -77 18 -135t44 -89.5t61.5 -50.5t63.5 -24.5t57 -5.5q31 0 47 4v-80q-16 -4 -51 -4q-26 0 -51.5 3t-59 13t-62.5 26t-58 45t-49.5 67.5t-33 96.5t-12.5 128zM444 1434h99q12 -53 12 -97q0 -76 -45 -178h-80
q37 95 37 160q0 53 -23 115z" />
    <glyph glyph-name="Tbar" unicode="&#x166;" horiz-adv-x="1251" 
d="M582 0v690h-340v82h340v580h-535v82h1157v-82h-534v-580h348v-82h-348v-690h-88z" />
    <glyph glyph-name="tbar" unicode="&#x167;" horiz-adv-x="632" 
d="M78 604v82h135v254h-135v78h135v291h86v-291h268v-78h-268v-254h268v-82h-268v-227q0 -77 18 -135t44 -89.5t61.5 -50.5t63.5 -24.5t57 -5.5l47 4v-80q-20 -4 -51 -4q-26 0 -51.5 3t-59 13t-62.5 26t-58 45t-49.5 67.5t-33 96.5t-12.5 128v233h-135z" />
    <glyph glyph-name="Utilde" unicode="&#x168;" horiz-adv-x="1476" 
d="M203 492v942h88v-938q0 -202 121 -319.5t325 -117.5t326.5 118.5t122.5 322.5v934h88v-942q0 -234 -148.5 -375.5t-386.5 -141.5t-387 141.5t-149 375.5zM442 1542q0 221 170 221q38 0 69.5 -15.5t53.5 -37.5t41.5 -44.5t43.5 -38t50 -15.5q25 0 43 15.5t25.5 40.5
t10.5 46t3 43h82q0 -221 -170 -221q-38 0 -69.5 15.5t-53.5 38t-41.5 45t-43.5 38t-50 15.5q-33 0 -53 -28.5t-24.5 -57.5t-4.5 -60h-82z" />
    <glyph glyph-name="utilde" unicode="&#x169;" horiz-adv-x="1187" 
d="M166 375v649h86v-618q0 -61 4 -105t19 -93t41 -79t74 -50t114 -20q124 0 221.5 66.5t148 172t50.5 226.5v500h86v-1024h-86v180q0 21 2 42t4 32l2 10h-4q-12 -32 -33.5 -67.5t-59.5 -75.5t-84 -72t-111 -53t-136 -21q-183 0 -260.5 98.5t-77.5 301.5zM293 1212
q0 222 170 222q38 0 69.5 -15.5t53.5 -38t41.5 -45t43.5 -38t50 -15.5q25 0 43 15.5t25.5 40.5t10.5 46t3 43h82q0 -221 -170 -221q-38 0 -69.5 15.5t-53.5 38t-41.5 45t-43.5 38t-50 15.5q-33 0 -53 -28.5t-24.5 -57.5t-4.5 -60h-82z" />
    <glyph glyph-name="Umacron" unicode="&#x16a;" horiz-adv-x="1476" 
d="M203 492v942h88v-938q0 -202 121 -319.5t325 -117.5t326.5 118.5t122.5 322.5v934h88v-942q0 -234 -148.5 -375.5t-386.5 -141.5t-387 141.5t-149 375.5zM494 1610v82h489v-82h-489z" />
    <glyph glyph-name="umacron" unicode="&#x16b;" horiz-adv-x="1187" 
d="M166 375v649h86v-618q0 -61 4 -105t19 -93t41 -79t74 -50t114 -20q124 0 221.5 66.5t148 172t50.5 226.5v500h86v-1024h-86v180q0 21 2 42t4 32l2 10h-4q-12 -32 -33.5 -67.5t-59.5 -75.5t-84 -72t-111 -53t-136 -21q-183 0 -260.5 98.5t-77.5 301.5zM344 1280v82h490
v-82h-490z" />
    <glyph glyph-name="Ubreve" unicode="&#x16c;" horiz-adv-x="1476" 
d="M203 492v942h88v-938q0 -202 121 -319.5t325 -117.5t326.5 118.5t122.5 322.5v934h88v-942q0 -234 -148.5 -375.5t-386.5 -141.5t-387 141.5t-149 375.5zM737 1530q-85 0 -146 52.5t-61 148.5v32h82v-28q0 -64 35 -95.5t90 -31.5q54 0 89.5 32t35.5 97v26h82v-32
q0 -96 -61 -148.5t-146 -52.5z" />
    <glyph glyph-name="ubreve" unicode="&#x16d;" horiz-adv-x="1187" 
d="M166 375v649h86v-618q0 -61 4 -105t19 -93t41 -79t74 -50t114 -20q124 0 221.5 66.5t148 172t50.5 226.5v500h86v-1024h-86v180q0 21 2 42t4 32l2 10h-4q-12 -32 -33.5 -67.5t-59.5 -75.5t-84 -72t-111 -53t-136 -21q-183 0 -260.5 98.5t-77.5 301.5zM588 1200
q-85 0 -146 52.5t-61 148.5v33h82v-29q0 -64 35 -95.5t90 -31.5q54 0 89.5 32t35.5 97v27h82v-33q0 -96 -61 -148.5t-146 -52.5z" />
    <glyph glyph-name="Uring" unicode="&#x16e;" horiz-adv-x="1476" 
d="M203 492v942h88v-938q0 -202 121 -319.5t325 -117.5t326.5 118.5t122.5 322.5v934h88v-942q0 -234 -148.5 -375.5t-386.5 -141.5t-387 141.5t-149 375.5zM737 1516q-59 0 -98 39t-39 98t39 98t98 39t98 -39t39 -98t-39 -98t-98 -39zM737 1587q29 0 47.5 18.5t18.5 47.5
q0 31 -18.5 49t-47.5 18t-47 -18t-18 -49q0 -29 18 -47.5t47 -18.5z" />
    <glyph glyph-name="uring" unicode="&#x16f;" horiz-adv-x="1187" 
d="M166 375v649h86v-618q0 -61 4 -105t19 -93t41 -79t74 -50t114 -20q124 0 221.5 66.5t148 172t50.5 226.5v500h86v-1024h-86v180q0 21 2 42t4 32l2 10h-4q-12 -32 -33.5 -67.5t-59.5 -75.5t-84 -72t-111 -53t-136 -21q-183 0 -260.5 98.5t-77.5 301.5zM588 1186
q-58 0 -97.5 39t-39.5 98t39.5 98t97.5 39t97.5 -39t39.5 -98t-39.5 -98t-97.5 -39zM588 1257q29 0 47 18.5t18 47.5q0 31 -18 49.5t-47 18.5t-47.5 -18.5t-18.5 -49.5q0 -29 18.5 -47.5t47.5 -18.5z" />
    <glyph glyph-name="Uhungarumlaut" unicode="&#x170;" horiz-adv-x="1476" 
d="M203 492v942h88v-938q0 -202 121 -319.5t325 -117.5t326.5 118.5t122.5 322.5v934h88v-942q0 -234 -148.5 -375.5t-386.5 -141.5t-387 141.5t-149 375.5zM778 1536l137 227h115l-162 -227h-90zM543 1536l127 227h102l-133 -227h-96z" />
    <glyph glyph-name="uhungarumlaut" unicode="&#x171;" horiz-adv-x="1187" 
d="M166 375v649h86v-618q0 -61 4 -105t19 -93t41 -79t74 -50t114 -20q124 0 221.5 66.5t148 172t50.5 226.5v500h86v-1024h-86v180q0 21 2 42t4 32l2 10h-4q-12 -32 -33.5 -67.5t-59.5 -75.5t-84 -72t-111 -53t-136 -21q-183 0 -260.5 98.5t-77.5 301.5zM629 1206l137 228
h115l-162 -228h-90zM393 1206l127 228h103l-134 -228h-96z" />
    <glyph glyph-name="Uogonek" unicode="&#x172;" horiz-adv-x="1476" 
d="M203 492v942h88v-938q0 -202 121 -319.5t325 -117.5t326.5 118.5t122.5 322.5v934h88v-942q0 -92 -22 -167.5t-63.5 -130t-83.5 -91t-99 -72.5t-87 -57t-68.5 -55t-55.5 -68.5t-17 -73.5q0 -29 14.5 -51t35 -33.5t41 -19t35.5 -9.5l14 -2l-19 -80q-9 1 -23 2.5t-51 13.5
t-65 30t-51 55t-23 86q0 103 109 208q-38 -2 -56 -2q-238 0 -387 141.5t-149 375.5z" />
    <glyph glyph-name="uogonek" unicode="&#x173;" horiz-adv-x="1187" 
d="M166 375v649h86v-618q0 -61 4 -105t19 -93t41 -79t74 -50t114 -20q124 0 221.5 66.5t148 172t50.5 226.5v500h86v-1024q-164 -122 -164 -223q0 -29 14.5 -51t35 -33.5t40.5 -19t34 -9.5l15 -2l-18 -80q-9 1 -23 2.5t-51 13.5t-65 30t-51 55t-23 86q0 127 170 245v166
q0 21 2 42t4 32l2 10h-4q-12 -32 -33.5 -67.5t-59.5 -75.5t-84 -72t-111 -53t-136 -21q-183 0 -260.5 98.5t-77.5 301.5z" />
    <glyph glyph-name="Wcircumflex" unicode="&#x174;" horiz-adv-x="1871" 
d="M461 0l-377 1434h92l303 -1168l35 -153h4q19 81 39 153l328 1168h98l328 -1168l39 -153h4q17 83 35 153l313 1168h92l-387 -1434h-111l-303 1081q-12 41 -25.5 98t-21.5 93l-8 37h-8q-29 -136 -56 -228l-303 -1081h-110zM739 1536l164 227h107l164 -227h-101l-115 164h-4
l-114 -164h-101z" />
    <glyph glyph-name="wcircumflex" unicode="&#x175;" horiz-adv-x="1685" 
d="M430 0l-360 1024h92l278 -803l35 -110h4q19 61 35 110l281 799h96l280 -799l35 -110h4q17 59 35 110l279 803h92l-361 -1024h-92l-284 795l-35 110h-4q-17 -61 -35 -110l-283 -795h-92zM625 1206l163 228h107l164 -228h-101l-114 164h-4l-115 -164h-100z" />
    <glyph glyph-name="Ycircumflex" unicode="&#x176;" horiz-adv-x="1161" 
d="M537 0v623l-488 811h101l339 -566l89 -161h4q45 91 88 161l340 566h100l-485 -811v-623h-88zM362 1536l164 227h107l164 -227h-101l-114 164h-4l-115 -164h-101z" />
    <glyph glyph-name="ycircumflex" unicode="&#x177;" horiz-adv-x="1058" 
d="M84 -299q6 -5 17.5 -13.5t45 -22t64.5 -13.5q122 0 201 184l73 170l-424 1018h93l338 -817l36 -96h4q15 47 35 96l338 817h92l-526 -1264q-36 -85 -102 -137.5t-158 -52.5q-44 0 -85.5 14t-61.5 28l-19 15zM315 1206l164 228h107l164 -228h-101l-114 164h-5l-114 -164
h-101z" />
    <glyph glyph-name="Ydieresis" unicode="&#x178;" horiz-adv-x="1161" 
d="M537 0v623l-488 811h101l339 -566l89 -161h4q45 91 88 161l340 566h100l-485 -811v-623h-88zM662 1614v149h94v-149h-94zM381 1614v149h94v-149h-94z" />
    <glyph glyph-name="Zacute" unicode="&#x179;" horiz-adv-x="1157" 
d="M72 0v70l788 1151q22 33 46.5 65.5t37.5 49.5l14 16v4q-32 -4 -104 -4h-739v82h950v-70l-789 -1151q-22 -33 -46.5 -65.5t-37.5 -49.5l-14 -16v-4q33 4 105 4h788v-82h-999zM555 1536l137 227h115l-162 -227h-90z" />
    <glyph glyph-name="zacute" unicode="&#x17a;" horiz-adv-x="997" 
d="M78 0v70l620 780l80 94v4q-36 -4 -104 -4h-570v80h791v-70l-623 -780q-16 -21 -36.5 -44.5t-33.5 -36.5l-12 -13v-4q39 4 107 4h621v-80h-840zM449 1206l137 228h114l-161 -228h-90z" />
    <glyph glyph-name="Zdotaccent" unicode="&#x17b;" horiz-adv-x="1157" 
d="M72 0v70l788 1151q22 33 46.5 65.5t37.5 49.5l14 16v4q-32 -4 -104 -4h-739v82h950v-70l-789 -1151q-22 -33 -46.5 -65.5t-37.5 -49.5l-14 -16v-4q33 4 105 4h788v-82h-999zM555 1614v149h94v-149h-94z" />
    <glyph glyph-name="zdotaccent" unicode="&#x17c;" horiz-adv-x="997" 
d="M78 0v70l620 780l80 94v4q-36 -4 -104 -4h-570v80h791v-70l-623 -780q-16 -21 -36.5 -44.5t-33.5 -36.5l-12 -13v-4q39 4 107 4h621v-80h-840zM451 1284v150h94v-150h-94z" />
    <glyph glyph-name="Zcaron" unicode="&#x17d;" horiz-adv-x="1157" 
d="M72 0v70l788 1151q22 33 46.5 65.5t37.5 49.5l14 16v4q-32 -4 -104 -4h-739v82h950v-70l-789 -1151q-22 -33 -46.5 -65.5t-37.5 -49.5l-14 -16v-4q33 4 105 4h788v-82h-999zM549 1536l-164 227h100l115 -164h4l115 164h100l-164 -227h-106z" />
    <glyph glyph-name="zcaron" unicode="&#x17e;" horiz-adv-x="997" 
d="M78 0v70l620 780l80 94v4q-36 -4 -104 -4h-570v80h791v-70l-623 -780q-16 -21 -36.5 -44.5t-33.5 -36.5l-12 -13v-4q39 4 107 4h621v-80h-840zM444 1206l-163 228h100l115 -164h4l114 164h101l-164 -228h-107z" />
    <glyph glyph-name="longs" unicode="&#x17f;" horiz-adv-x="514" 
d="M209 0v940h-129v78h129v47q0 96 24.5 168.5t59 111.5t82 62.5t84 30t73.5 6.5l54 -4v-80q-18 4 -47 4t-57 -5t-63.5 -24t-61.5 -49.5t-44 -87t-18 -131.5v-1067h-86z" />
    <glyph glyph-name="florin" unicode="&#x192;" horiz-adv-x="1146" 
d="M74 -117q55 -10 127 -10q29 0 57 5t65 23.5t64.5 49.5t50 87.5t29.5 131.5l53 604h-196v78h202l21 227q8 96 39.5 168.5t70 111.5t88.5 62.5t87.5 30t74.5 6.5q38 0 79.5 -3.5t63.5 -6.5l23 -4v-80q-86 14 -168 14q-30 0 -58 -5t-65 -23.5t-64.5 -49.5t-50.5 -87.5
t-30 -131.5l-23 -229h273v-78h-279l-53 -602q-6 -70 -24 -128t-42 -96.5t-55.5 -67.5t-61 -45t-63.5 -26t-59.5 -13t-50.5 -3q-34 0 -65 2.5t-46 4.5l-14 3v80z" />
    <glyph glyph-name="Scommaaccent" unicode="&#x218;" horiz-adv-x="1073" 
d="M106 154l60 67q72 -72 172 -116t205 -44q143 0 234 77.5t91 205.5q0 64 -25 116t-67.5 89t-97.5 68t-116 57.5t-121.5 53.5t-115.5 60.5t-97.5 74t-67.5 98.5t-25 129q0 165 123.5 266.5t308.5 101.5q100 0 198 -34.5t165 -98.5l-49 -76q-58 57 -144.5 90t-173.5 33
q-89 0 -165 -32t-123.5 -96t-47.5 -148q0 -61 25 -110.5t67.5 -84t97.5 -64t116 -55t122 -52.5t116 -62t97.5 -76.5t67.5 -102.5t25 -135q0 -165 -114 -272t-306 -107q-121 0 -235.5 47t-199.5 132zM487 -135h99q12 -53 12 -96q0 -77 -45 -179h-80q37 95 37 160
q0 53 -23 115z" />
    <glyph glyph-name="scommaaccent" unicode="&#x219;" horiz-adv-x="880" 
d="M84 123l55 65q58 -61 143.5 -95t174.5 -34q99 0 167 51t68 142q0 52 -31 92.5t-80.5 66.5t-109.5 49t-120.5 49.5t-110 58.5t-80.5 84t-31 120q0 131 95 204t233 73q86 0 167 -27t136 -84l-51 -70q-43 46 -114 71.5t-144 25.5q-97 0 -164.5 -47t-67.5 -140q0 -47 24 -85
t64 -61.5t90.5 -47t103 -41.5t103 -45t90.5 -57.5t64 -79t24 -109.5q0 -122 -92.5 -199.5t-234.5 -77.5q-104 0 -204 37.5t-167 110.5zM399 -135h99q12 -52 12 -96q0 -77 -45 -179h-80q37 95 37 160q0 53 -23 115z" />
    <glyph glyph-name="uni021A" unicode="&#x21a;" horiz-adv-x="1230" 
d="M571 0v1352h-534v82h1157v-82h-535v-1352h-88zM567 -135h99q12 -53 12 -96q0 -77 -45 -179h-80q37 95 37 160q0 53 -23 115z" />
    <glyph glyph-name="uni021B" unicode="&#x21b;" horiz-adv-x="622" 
d="M209 371v569h-135v78h135v291h86v-291h268v-78h-268v-563q0 -77 18 -135t44 -89.5t61.5 -50.5t63.5 -24.5t57 -5.5q31 0 47 4v-80q-16 -4 -51 -4q-26 0 -51.5 3t-59 13t-62.5 26t-58 45t-49.5 67.5t-33 96.5t-12.5 128zM352 -135h99q12 -52 12 -96q0 -77 -45 -179h-80
q37 95 37 160q0 53 -23 115z" />
    <glyph glyph-name="circumflex" unicode="&#x2c6;" horiz-adv-x="1040" 
d="M303 1536l164 227h106l164 -227h-100l-115 164h-4l-115 -164h-100z" />
    <glyph glyph-name="caron" unicode="&#x2c7;" horiz-adv-x="1040" 
d="M467 1536l-164 227h100l115 -164h4l115 164h100l-164 -227h-106z" />
    <glyph glyph-name="breve" unicode="&#x2d8;" horiz-adv-x="1044" 
d="M522 1530q-85 0 -146 52.5t-61 148.5v32h82v-28q0 -64 35 -95.5t90 -31.5q54 0 89.5 32t35.5 97v26h82v-32q0 -96 -61 -148.5t-146 -52.5z" />
    <glyph glyph-name="dotaccent" unicode="&#x2d9;" horiz-adv-x="1044" 
d="M475 1614v149h94v-149h-94z" />
    <glyph glyph-name="ring" unicode="&#x2da;" horiz-adv-x="1044" 
d="M522 1516q-58 0 -97.5 39t-39.5 98t39.5 98t97.5 39t97.5 -39t39.5 -98t-39.5 -98t-97.5 -39zM522 1587q29 0 47.5 18.5t18.5 47.5q0 31 -18 49t-48 18q-29 0 -47 -18t-18 -49q0 -29 18 -47.5t47 -18.5z" />
    <glyph glyph-name="ogonek" unicode="&#x2db;" horiz-adv-x="1042" 
d="M383 -231q0 46 20.5 91t49.5 76t57.5 56t49.5 37l20 12l79 -27q-7 -5 -19.5 -13.5t-44.5 -35.5t-56 -53.5t-44 -64t-20 -70.5q0 -29 14.5 -51t34.5 -33.5t40.5 -19t35.5 -9.5l14 -2l-18 -80q-9 1 -23 2.5t-51 13.5t-65 30t-51 55t-23 86z" />
    <glyph glyph-name="tilde" unicode="&#x2dc;" horiz-adv-x="1042" 
d="M225 1542q0 221 170 221q38 0 69.5 -15.5t53.5 -37.5t41.5 -44.5t43.5 -38t50 -15.5q25 0 43 15.5t25.5 40.5t10.5 46t3 43h82q0 -221 -170 -221q-38 0 -69.5 15.5t-53.5 38t-41.5 45t-43.5 38t-50 15.5q-33 0 -53 -28.5t-24.5 -57.5t-4.5 -60h-82z" />
    <glyph glyph-name="hungarumlaut" unicode="&#x2dd;" horiz-adv-x="1042" 
d="M514 1536l137 227h115l-162 -227h-90zM279 1536l127 227h102l-133 -227h-96z" />
    <glyph glyph-name="uni0400" unicode="&#x400;" horiz-adv-x="1138" 
d="M219 0v1434h785v-82h-697v-588h572v-82h-572v-600h735v-82h-823zM618 1536l-161 227h114l138 -227h-91z" />
    <glyph glyph-name="uni0401" unicode="&#x401;" horiz-adv-x="1138" 
d="M219 0v1434h785v-82h-697v-588h572v-82h-572v-600h735v-82h-823zM721 1614v149h94v-149h-94zM440 1614v149h95v-149h-95z" />
    <glyph glyph-name="uni0402" unicode="&#x402;" horiz-adv-x="1470" 
d="M457 0v1352h-422v82h1009v-82h-499v-531l-2 -61h4q197 94 385 94q219 0 335.5 -116.5t116.5 -309.5q0 -120 -38 -210.5t-103 -142t-141.5 -76t-163.5 -24.5q-24 0 -96 5v79q36 -4 90 -4q70 0 131.5 19t115.5 60t85.5 116.5t31.5 177.5q0 155 -89.5 248.5t-274.5 93.5
q-96 0 -192.5 -26t-145.5 -52l-49 -26v-666h-88z" />
    <glyph glyph-name="uni0403" unicode="&#x403;" horiz-adv-x="974" 
d="M219 0v1434h723v-82h-635v-1352h-88zM516 1536l137 227h115l-162 -227h-90z" />
    <glyph glyph-name="uni0404" unicode="&#x404;" horiz-adv-x="1468" 
d="M123 727q0 205 93 372.5t256 263t362 95.5q95 0 183 -18.5t145 -45t100.5 -53t63.5 -45.5l20 -18l-54 -66q-7 7 -20 17.5t-57.5 38.5t-94 49.5t-127 39t-157.5 17.5q-169 0 -308.5 -79t-222.5 -220t-90 -315h864v-82h-862q11 -174 94 -315t222.5 -222.5t308.5 -81.5
q86 0 167.5 20t136.5 48.5t98 57.5t63 49l20 20l55 -61q-8 -9 -23 -23.5t-67 -52t-110 -66.5t-150.5 -52.5t-189.5 -23.5q-154 0 -288.5 59.5t-228.5 160.5t-148 239.5t-54 292.5z" />
    <glyph glyph-name="uni0405" unicode="&#x405;" horiz-adv-x="1073" 
d="M106 154l60 67q72 -72 172 -116t205 -44q143 0 234 77.5t91 205.5q0 64 -25 116t-67.5 89t-97.5 68t-116 57.5t-121.5 53.5t-115.5 60.5t-97.5 74t-67.5 98.5t-25 129q0 165 123.5 266.5t308.5 101.5q100 0 198 -34.5t165 -98.5l-49 -76q-58 57 -144.5 90t-173.5 33
q-89 0 -165 -32t-123.5 -96t-47.5 -148q0 -61 25 -110.5t67.5 -84t97.5 -64t116 -55t122 -52.5t116 -62t97.5 -76.5t67.5 -102.5t25 -135q0 -165 -114 -272t-306 -107q-121 0 -235.5 47t-199.5 132z" />
    <glyph glyph-name="uni0406" unicode="&#x406;" horiz-adv-x="526" 
d="M219 0v1434h88v-1434h-88z" />
    <glyph glyph-name="uni0407" unicode="&#x407;" horiz-adv-x="526" 
d="M219 0v1434h88v-1434h-88zM358 1614v149h95v-149h-95zM78 1614v149h94v-149h-94z" />
    <glyph glyph-name="uni0408" unicode="&#x408;" horiz-adv-x="1042" 
d="M72 391v45h88v-47q0 -91 30 -163.5t98 -119.5t165 -47q58 0 108.5 17.5t94 54t69 103t25.5 155.5v963h-342v82h430v-1043q0 -110 -33 -193.5t-89.5 -130.5t-122 -69.5t-138.5 -22.5t-138.5 22.5t-122 69.5t-89.5 130.5t-33 193.5z" />
    <glyph glyph-name="uni0409" unicode="&#x409;" horiz-adv-x="1890" 
d="M45 -16v86q87 11 150.5 72t102.5 155.5t62.5 237.5t32 297.5t8.5 357.5v244h674v-635h303q194 0 314 -106t120 -294q0 -183 -121.5 -291t-299.5 -108h-404v1352h-500v-162q0 -121 -2.5 -218.5t-8.5 -200.5t-17 -185t-28.5 -163t-41 -142.5t-57 -116t-75 -91t-95 -60
t-117.5 -29.5zM1075 82h307q150 0 244 83t94 234q0 148 -95.5 233t-242.5 85h-307v-635z" />
    <glyph glyph-name="uni040A" unicode="&#x40a;" horiz-adv-x="2023" 
d="M219 0v1434h88v-637h807v637h88v-635h324q185 0 302.5 -106.5t117.5 -293.5q0 -122 -58 -214t-153 -138.5t-211 -46.5h-410v715h-807v-715h-88zM1202 82h314q150 0 243.5 83t93.5 234q0 148 -95 233t-242 85h-314v-635z" />
    <glyph glyph-name="uni040B" unicode="&#x40b;" horiz-adv-x="1458" 
d="M457 0v1352h-422v82h1007v-82h-497v-541l-4 -68h4q70 41 181 76t230 35q387 0 387 -395v-459h-88v444q0 163 -71.5 244.5t-227.5 81.5q-121 0 -234 -39.5t-177 -85.5v-645h-88z" />
    <glyph glyph-name="uni040C" unicode="&#x40c;" horiz-adv-x="1169" 
d="M219 0v1434h88v-639h266l410 639h107l-441 -676v-4l469 -754h-106l-439 713h-266v-713h-88zM557 1536l137 227h115l-162 -227h-90z" />
    <glyph glyph-name="uni040D" unicode="&#x40d;" horiz-adv-x="1536" 
d="M219 0v1434h88v-1125q0 -32 -2.5 -77t-4.5 -74l-3 -29h4q78 120 125 186l809 1119h82v-1434h-88v1124q0 32 2.5 77t4.5 75l3 29h-4q-72 -115 -119 -181l-815 -1124h-82zM737 1536l-162 227h115l137 -227h-90z" />
    <glyph glyph-name="uni040E" unicode="&#x40e;" horiz-adv-x="1179" 
d="M184 57l47 70q100 -70 168 -70q31 0 56 11t43.5 28.5t36.5 48.5t31 61t30 77l-573 1151h98l434 -873q18 -36 38.5 -82t32.5 -74l11 -28h4q35 102 66 184l327 873h96l-481 -1241q-85 -218 -250 -218q-99 0 -215 82zM584 1503q-98 0 -170 60.5t-72 162.5v37h86v-30
q0 -69 45.5 -108.5t110.5 -39.5q64 0 110.5 40t46.5 110v28h84v-37q0 -102 -71.5 -162.5t-169.5 -60.5z" />
    <glyph glyph-name="uni040F" unicode="&#x40f;" horiz-adv-x="1468" 
d="M219 0v1434h88v-1352h854v1352h88v-1434h-471v-287h-88v287h-471z" />
    <glyph glyph-name="uni0410" unicode="&#x410;" horiz-adv-x="1277" 
d="M55 0l537 1434h94l537 -1434h-95l-186 496h-608l-184 -496h-95zM365 578h546l-217 581q-10 27 -23.5 70t-21.5 73l-8 29h-4q-30 -111 -53 -172z" />
    <glyph glyph-name="uni0411" unicode="&#x411;" horiz-adv-x="1196" 
d="M219 0v1434h782v-82h-694v-533h369q88 0 162 -25t131 -74t89 -129t32 -183q0 -186 -112.5 -297t-287.5 -111h-471zM307 82h375q146 0 230.5 86t84.5 240q0 152 -88 240.5t-229 88.5h-373v-655z" />
    <glyph glyph-name="uni0412" unicode="&#x412;" horiz-adv-x="1245" 
d="M219 0v1434h481q159 0 261 -98.5t102 -260.5q0 -113 -49.5 -192.5t-136.5 -120.5v-4q108 -30 175.5 -128.5t67.5 -234.5q0 -178 -112.5 -286.5t-286.5 -108.5h-502zM307 795h391q121 0 197 77t76 203t-74.5 201.5t-200.5 75.5h-389v-557zM307 82h406q145 0 230 83.5
t85 229.5q0 144 -88.5 231t-228.5 87h-404v-631z" />
    <glyph glyph-name="uni0413" unicode="&#x413;" horiz-adv-x="974" 
d="M219 0v1434h723v-82h-635v-1352h-88z" />
    <glyph glyph-name="uni0414" unicode="&#x414;" horiz-adv-x="1396" 
d="M252 82h807v1270h-567v-181q0 -160 -9 -293t-33 -281.5t-74 -280t-124 -234.5zM8 82h144q68 86 117 196t75 212.5t40.5 232.5t18 225t3.5 221v265h741v-1352h160v-369h-86v287h-1125v-287h-88v369z" />
    <glyph glyph-name="uni0415" unicode="&#x415;" horiz-adv-x="1138" 
d="M219 0v1434h785v-82h-697v-588h572v-82h-572v-600h735v-82h-823z" />
    <glyph glyph-name="uni0416" unicode="&#x416;" horiz-adv-x="1677" 
d="M53 0l441 754v4l-412 676h102l385 -639h226v639h88v-639h225l385 639h102l-411 -676v-4l440 -754h-102l-414 713h-225v-713h-88v713h-226l-413 -713h-103z" />
    <glyph glyph-name="uni0417" unicode="&#x417;" horiz-adv-x="1085" 
d="M74 152l59 69q61 -70 159 -115t202 -45q163 0 270.5 92t107.5 244q0 144 -98 227t-242 83h-182v81h146q133 0 229 83t96 214q0 124 -78.5 205.5t-238.5 81.5q-193 0 -338 -123l-49 76q162 133 387 133q198 0 303.5 -100.5t105.5 -265.5q0 -124 -64 -205.5t-159 -122.5v-4
q125 -32 200 -127t75 -236q0 -189 -133.5 -305.5t-339.5 -116.5q-118 0 -234.5 48t-183.5 129z" />
    <glyph glyph-name="uni0418" unicode="&#x418;" horiz-adv-x="1536" 
d="M219 0v1434h88v-1125q0 -32 -2.5 -77t-4.5 -74l-3 -29h4q78 120 125 186l809 1119h82v-1434h-88v1124q0 32 2.5 77t4.5 75l3 29h-4q-72 -115 -119 -181l-815 -1124h-82z" />
    <glyph glyph-name="uni0419" unicode="&#x419;" horiz-adv-x="1536" 
d="M770 1503q-98 0 -170 60.5t-72 162.5v37h86v-30q0 -69 45.5 -108.5t110.5 -39.5q64 0 111 40t47 110v28h84v-37q0 -102 -72 -162.5t-170 -60.5zM219 0v1434h88v-1125q0 -32 -2.5 -77t-4.5 -74l-3 -29h4q78 120 125 186l809 1119h82v-1434h-88v1124q0 32 2.5 77t4.5 75
l3 29h-4q-72 -115 -119 -181l-815 -1124h-82z" />
    <glyph glyph-name="uni041A" unicode="&#x41a;" horiz-adv-x="1169" 
d="M219 0v1434h88v-639h266l410 639h107l-441 -676v-4l469 -754h-106l-439 713h-266v-713h-88z" />
    <glyph glyph-name="uni041B" unicode="&#x41b;" horiz-adv-x="1335" 
d="M18 70q87 11 150.5 72t103 155.5t63 237.5t32 297.5t8.5 357.5v244h741v-1434h-88v1352h-567v-162q0 -157 -4 -278t-16 -248t-32 -220.5t-53.5 -180t-79.5 -142.5t-111 -92.5t-147 -44.5v86z" />
    <glyph glyph-name="uni041C" unicode="&#x41c;" horiz-adv-x="1708" 
d="M164 0l115 1434h86l417 -902l70 -161h4q37 91 70 161l417 902h87l114 -1434h-88l-88 1094q-3 31 -4.5 78.5t-1.5 79.5v32h-4q-41 -120 -74 -190l-385 -818h-90l-383 818q-14 30 -33 78.5t-31 81.5l-12 34h-4q0 -124 -6 -194l-88 -1094h-88z" />
    <glyph glyph-name="uni041D" unicode="&#x41d;" horiz-adv-x="1523" 
d="M219 0v1434h88v-674h910v674h88v-1434h-88v678h-910v-678h-88z" />
    <glyph glyph-name="uni041E" unicode="&#x41e;" horiz-adv-x="1691" 
d="M121 727q0 152 57.5 288t155 232.5t231.5 153.5t281 57t281 -57t231.5 -153.5t155 -232.5t57.5 -288q0 -155 -57.5 -295t-155 -240t-231.5 -158.5t-281 -58.5t-281 58.5t-231.5 158.5t-155 240t-57.5 295zM213 727q0 -185 85 -339t230 -241.5t318 -87.5t318 87.5
t230 241.5t85 339q0 180 -85 329t-230 233.5t-318 84.5t-318 -84.5t-230 -233.5t-85 -329z" />
    <glyph glyph-name="uni041F" unicode="&#x41f;" horiz-adv-x="1503" 
d="M219 0v1434h1065v-1434h-88v1352h-889v-1352h-88z" />
    <glyph glyph-name="uni0420" unicode="&#x420;" horiz-adv-x="1206" 
d="M219 0v1434h471q191 0 313.5 -113.5t122.5 -304.5q0 -192 -122.5 -307t-313.5 -115h-383v-594h-88zM307 676h379q159 0 253.5 90.5t94.5 249.5t-94.5 247.5t-253.5 88.5h-379v-676z" />
    <glyph glyph-name="uni0421" unicode="&#x421;" horiz-adv-x="1472" 
d="M123 727q0 154 53 289.5t146 232.5t226 153t286 56q144 0 280 -44.5t232 -135.5l-54 -66q-86 77 -209 119.5t-247 42.5q-180 0 -322 -84t-220.5 -231.5t-78.5 -331.5q0 -139 46 -261.5t127 -212.5t199 -142t255 -52q134 0 262 50.5t223 144.5l55 -61q-226 -218 -540 -218
q-127 0 -239.5 38t-199.5 107t-150.5 162t-96.5 207t-33 238z" />
    <glyph glyph-name="uni0422" unicode="&#x422;" horiz-adv-x="1230" 
d="M571 0v1352h-534v82h1157v-82h-535v-1352h-88z" />
    <glyph glyph-name="uni0423" unicode="&#x423;" horiz-adv-x="1179" 
d="M184 57l47 70q100 -70 168 -70q31 0 56 11t43.5 28.5t36.5 48.5t31 61t30 77l-573 1151h98l434 -873q18 -36 38.5 -82t32.5 -74l11 -28h4q35 102 66 184l327 873h96l-481 -1241q-85 -218 -250 -218q-99 0 -215 82z" />
    <glyph glyph-name="uni0424" unicode="&#x424;" horiz-adv-x="1656" 
d="M100 760q0 278 187 438t497 160v178h88v-178q203 0 357 -70.5t240.5 -207t86.5 -320.5q0 -278 -187 -438t-497 -160v-187h-88v187q-310 0 -497 160t-187 438zM872 240q275 0 433.5 135.5t158.5 384.5t-158.5 384.5t-433.5 135.5v-1040zM193 760q0 -249 158 -384.5
t433 -135.5v1040q-275 0 -433 -135.5t-158 -384.5z" />
    <glyph glyph-name="uni0425" unicode="&#x425;" horiz-adv-x="1136" 
d="M43 0l463 758l-412 676h107l274 -457l92 -156h4q48 86 91 156l276 457h106l-415 -676l465 -758h-105l-332 545l-90 151h-4q-45 -81 -88 -153l-328 -543h-104z" />
    <glyph glyph-name="uni0426" unicode="&#x426;" horiz-adv-x="1499" 
d="M219 0v1434h88v-1352h854v1352h88v-1352h160v-369h-86v287h-1104z" />
    <glyph glyph-name="uni0427" unicode="&#x427;" horiz-adv-x="1228" 
d="M545 580q-422 0 -422 395v459h88v-445q0 -164 79 -244.5t255 -80.5q105 0 209 38t168 82v650h88v-1434h-88v625l4 67h-4q-72 -42 -175.5 -77t-201.5 -35z" />
    <glyph glyph-name="uni0428" unicode="&#x428;" horiz-adv-x="2013" 
d="M219 0v1434h88v-1352h656v1352h88v-1352h655v1352h88v-1434h-1575z" />
    <glyph glyph-name="uni0429" unicode="&#x429;" horiz-adv-x="2056" 
d="M219 0v1434h88v-1352h656v1352h88v-1352h655v1352h88v-1352h176v-369h-88v287h-1663z" />
    <glyph glyph-name="uni042A" unicode="&#x42a;" horiz-adv-x="1335" 
d="M403 0v1352h-380v82h469v-615h348q118 0 209 -42.5t147.5 -137t56.5 -231.5q0 -186 -112 -297t-287 -111h-451zM492 82h354q146 0 230.5 86t84.5 240q0 152 -88 240.5t-229 88.5h-352v-655z" />
    <glyph glyph-name="uni042B" unicode="&#x42b;" horiz-adv-x="1607" 
d="M1300 0v1434h89v-1434h-89zM219 0v1434h88v-615h348q88 0 162 -25t131 -74t89 -129t32 -183q0 -186 -112 -297t-287 -111h-451zM307 82h355q146 0 230.5 86t84.5 240q0 152 -88.5 240.5t-229.5 88.5h-352v-655z" />
    <glyph glyph-name="uni042C" unicode="&#x42c;" horiz-adv-x="1150" 
d="M219 0v1434h88v-615h348q88 0 162 -25t131 -74t89 -129t32 -183q0 -186 -112 -297t-287 -111h-451zM307 82h355q146 0 230.5 86t84.5 240q0 152 -88.5 240.5t-229.5 88.5h-352v-655z" />
    <glyph glyph-name="uni042D" unicode="&#x42d;" horiz-adv-x="1468" 
d="M86 193l55 61q76 -85 212 -140t276 -55q167 0 306 81.5t222 223t94 314.5h-862v82h864q-6 131 -56 245t-132 195t-194.5 127.5t-239.5 46.5q-122 0 -242.5 -42t-212.5 -120l-53 66q91 86 228 133t278 47q152 0 285.5 -56t228 -153t149 -232.5t54.5 -289.5
q0 -206 -92 -378t-257 -273t-368 -101q-149 0 -295.5 56.5t-247.5 161.5z" />
    <glyph glyph-name="uni042E" unicode="&#x42e;" horiz-adv-x="2121" 
d="M219 0v1434h88v-674h283q8 194 104 354.5t255 252t345 91.5q143 0 273 -57t225 -153.5t151 -232.5t56 -288q0 -155 -56 -295t-151 -240t-225 -158.5t-273 -58.5q-184 0 -341 92t-253.5 253.5t-107.5 357.5h-285v-678h-88zM682 727q0 -138 48.5 -262t130.5 -212t195 -140
t238 -52q167 0 307.5 87.5t223 241t82.5 337.5q0 179 -82.5 327.5t-223 233t-307.5 84.5t-307.5 -84.5t-222.5 -233t-82 -327.5z" />
    <glyph glyph-name="uni042F" unicode="&#x42f;" horiz-adv-x="1230" 
d="M68 0l358 590l33 51v4q-150 36 -226.5 140.5t-76.5 261.5q0 120 53 209.5t145 134.5q85 43 258 43h400v-1434h-88v635h-367l-385 -635h-104zM555 717h369v635h-308q-134 0 -200 -29q-78 -35 -123 -108t-45 -168q0 -148 83.5 -239t223.5 -91z" />
    <glyph glyph-name="uni0430" unicode="&#x430;" horiz-adv-x="1040" 
d="M84 272q0 56 16.5 103.5t42 81.5t66 61t79.5 44.5t92 30t93 18.5t93 9.5t82.5 4t70.5 0.5h67v34q0 306 -280 306q-161 0 -293 -99l-49 70q59 52 153.5 82.5t192.5 30.5q178 0 270 -98t92 -289v-662h-86v135q0 24 2 47t4 34l3 11h-4q-41 -107 -136.5 -179.5t-222.5 -72.5
q-64 0 -124.5 18t-111.5 53t-81.5 93.5t-30.5 132.5zM174 279q0 -89 69.5 -156.5t192.5 -67.5q80 0 148 39t111 102t67 139.5t24 153.5v56h-65q-41 0 -65.5 -0.5t-73 -2.5t-81 -6.5t-79.5 -14t-78 -22t-66 -33t-55.5 -46.5t-34.5 -62t-14 -79z" />
    <glyph glyph-name="uni0431" unicode="&#x431;" horiz-adv-x="1161" 
d="M133 571q0 106 8.5 186t32.5 160.5t66 143t111 120.5t165 105l391 195l39 -76l-397 -197q-95 -47 -159.5 -102.5t-102 -124t-55.5 -139t-25 -164.5h4q66 134 167 191t238 57q189 0 310 -126.5t121 -346.5q0 -212 -126 -345t-325 -133q-96 0 -173 29.5t-131 82.5t-90 128
t-52.5 164t-16.5 192zM236 457q0 -185 102.5 -292.5t257.5 -107.5q154 0 257 106.5t103 287.5t-101.5 287t-248.5 106q-164 0 -267 -111t-103 -276z" />
    <glyph glyph-name="uni0432" unicode="&#x432;" horiz-adv-x="997" 
d="M178 0v1024h322q159 0 247.5 -67t88.5 -193q0 -83 -42.5 -141t-121.5 -84v-4q101 -19 160 -87t59 -165q0 -128 -96 -205.5t-269 -77.5h-348zM264 569h240q118 0 178.5 50.5t60.5 144.5q0 182 -247 182h-232v-377zM264 80h254q143 0 213 53t70 150q0 101 -74 153.5
t-211 52.5h-252v-409z" />
    <glyph glyph-name="uni0433" unicode="&#x433;" horiz-adv-x="811" 
d="M178 0v1024h582v-78h-496v-946h-86z" />
    <glyph glyph-name="uni0434" unicode="&#x434;" horiz-adv-x="1132" 
d="M248 80h590v866h-406v-67q0 -529 -184 -799zM20 80h125q201 254 201 799v145h578v-944h143v-326h-86v246h-875v-246h-86v326z" />
    <glyph glyph-name="uni0435" unicode="&#x435;" horiz-adv-x="1124" 
d="M106 510q0 126 41 229.5t110 170.5t158.5 103t188.5 36q101 0 182.5 -38t132 -103t77 -148t26.5 -178q0 -20 -4 -56h-821q0 -215 126 -341t312 -126q87 0 171.5 34t145.5 95l47 -71q-68 -65 -167 -103.5t-197 -38.5q-108 0 -204.5 38t-168.5 106.5t-114 170t-42 220.5z
M203 606h729q-7 178 -100 270.5t-230 92.5q-148 0 -260 -95t-139 -268z" />
    <glyph glyph-name="uni0436" unicode="&#x436;" horiz-adv-x="1417" 
d="M47 0l361 522v4l-326 498h100l299 -459h185v459h86v-459h184l299 459h100l-325 -498v-4l360 -522h-108l-330 485h-180v-485h-86v485h-181l-329 -485h-109z" />
    <glyph glyph-name="uni0437" unicode="&#x437;" horiz-adv-x="882" 
d="M70 123l55 65q118 -131 283 -131q111 0 194.5 59t83.5 169q0 100 -74 153.5t-211 53.5h-122v79h110q122 0 190 50t68 147t-65.5 147t-171.5 50q-148 0 -252 -97l-52 70q129 111 312 111q143 0 232 -70t89 -203q0 -174 -166 -235v-4q94 -21 148.5 -85t54.5 -165
q0 -99 -54 -171.5t-136 -106.5t-178 -34q-194 0 -338 148z" />
    <glyph glyph-name="uni0438" unicode="&#x438;" horiz-adv-x="1196" 
d="M178 0v1024h86v-729l-6 -166h4q72 103 117 166l559 729h80v-1024h-86v731l6 160h-4q-72 -97 -117 -160l-559 -731h-80z" />
    <glyph glyph-name="uni0439" unicode="&#x439;" horiz-adv-x="1196" 
d="M598 1174q-98 0 -170 60.5t-72 162.5v37h86v-31q0 -69 45.5 -108.5t110.5 -39.5q64 0 111 40t47 110v29h84v-37q0 -102 -72 -162.5t-170 -60.5zM178 0v1024h86v-729l-6 -166h4q72 103 117 166l559 729h80v-1024h-86v731l6 160h-4q-72 -97 -117 -160l-559 -731h-80z" />
    <glyph glyph-name="uni043A" unicode="&#x43a;" horiz-adv-x="964" 
d="M178 0v1024h86v-453h178l336 453h109l-371 -487v-5l412 -532h-113l-373 492h-178v-492h-86z" />
    <glyph glyph-name="uni043B" unicode="&#x43b;" horiz-adv-x="1050" 
d="M41 -8v80q139 22 198.5 183.5t59.5 463.5v305h573v-1024h-86v944h-401v-225q0 -248 -39 -405t-113.5 -232.5t-191.5 -89.5z" />
    <glyph glyph-name="uni043C" unicode="&#x43c;" horiz-adv-x="1443" 
d="M139 0l82 1024h82l346 -678l70 -149h4q35 81 70 149l348 678h82l82 -1024h-86l-58 711q-2 22 -2.5 66t-0.5 77l1 33h-4q-21 -58 -68 -148l-321 -626h-88l-322 622q-19 36 -36 74t-24 58l-7 20h-4q2 -127 -2 -176l-58 -711h-86z" />
    <glyph glyph-name="uni043D" unicode="&#x43d;" horiz-adv-x="1198" 
d="M178 0v1024h86v-457h670v457h86v-1024h-86v487h-670v-487h-86z" />
    <glyph glyph-name="uni043E" unicode="&#x43e;" horiz-adv-x="1269" 
d="M104 518q0 147 71 269t193 192t267 70t266.5 -70t192.5 -192t71 -269q0 -150 -71 -275t-192.5 -196.5t-266.5 -71.5q-108 0 -206 42.5t-169.5 114.5t-113.5 173t-42 213zM195 518q0 -194 128 -326.5t312 -132.5t312 132.5t128 326.5q0 189 -128 318t-312 129t-312 -129
t-128 -318z" />
    <glyph glyph-name="uni043F" unicode="&#x43f;" horiz-adv-x="1177" 
d="M178 0v1024h821v-1024h-86v944h-649v-944h-86z" />
    <glyph glyph-name="uni0440" unicode="&#x440;" horiz-adv-x="1183" 
d="M178 -410v1434h86v-123q0 -21 -1.5 -41.5t-2.5 -30.5l-2 -10h4q46 107 144.5 168.5t224.5 61.5q203 0 322.5 -148t119.5 -389q0 -242 -127.5 -389.5t-327.5 -147.5q-117 0 -213 62t-145 170h-4q8 -37 8 -90v-527h-86zM262 510q0 -86 24 -166.5t67.5 -144t112.5 -102
t152 -38.5q156 0 260.5 122t104.5 331q0 205 -99 329t-257 124q-73 0 -137 -26.5t-116 -79.5t-82 -143t-30 -206z" />
    <glyph glyph-name="uni0441" unicode="&#x441;" horiz-adv-x="1105" 
d="M106 510q0 119 42.5 221t115 171t169 108t202.5 39q103 0 202 -37.5t164 -108.5l-53 -69q-56 59 -140.5 95t-172.5 36q-185 0 -311.5 -126.5t-126.5 -328.5q0 -200 127 -325.5t311 -125.5q96 0 188 39t154 109l45 -72q-65 -73 -169 -116.5t-218 -43.5q-108 0 -204.5 38
t-168.5 106.5t-114 170t-42 220.5z" />
    <glyph glyph-name="uni0442" unicode="&#x442;" horiz-adv-x="966" 
d="M440 0v944h-389v80h864v-80h-389v-944h-86z" />
    <glyph glyph-name="uni0443" unicode="&#x443;" horiz-adv-x="1058" 
d="M84 -299q6 -5 17.5 -13.5t45 -22t64.5 -13.5q122 0 201 184l73 170l-424 1018h93l338 -817l36 -96h4q15 47 35 96l338 817h92l-526 -1264q-36 -85 -102 -137.5t-158 -52.5q-44 0 -85.5 14t-61.5 28l-19 15z" />
    <glyph glyph-name="uni0444" unicode="&#x444;" horiz-adv-x="1400" 
d="M109 518q0 230 151.5 373.5t396.5 155.5v387h86v-387q245 -12 397 -155.5t152 -373.5q0 -235 -152 -382t-397 -159v-387h-86v387q-244 12 -396 159t-152 382zM743 59q207 12 333 135t126 324q0 197 -126 315.5t-333 129.5v-904zM199 518q0 -201 125.5 -324t332.5 -135
v904q-207 -11 -332.5 -129.5t-125.5 -315.5z" />
    <glyph glyph-name="uni0445" unicode="&#x445;" horiz-adv-x="946" 
d="M45 0l369 541l-330 483h104l248 -373l35 -57h4q19 30 35 57l248 373h104l-330 -483l369 -541h-106l-283 424l-37 59h-4q-17 -28 -37 -59l-282 -424h-107z" />
    <glyph glyph-name="uni0446" unicode="&#x446;" horiz-adv-x="1196" 
d="M178 0v1024h86v-944h637v944h86v-944h143v-326h-86v246h-866z" />
    <glyph glyph-name="uni0447" unicode="&#x447;" horiz-adv-x="991" 
d="M446 389q-342 0 -342 318v317h86v-317q0 -38 4.5 -67.5t20.5 -62.5t42.5 -54.5t74.5 -35.5t114 -14q84 0 159.5 29t121.5 63v459h86v-1024h-86v408l4 69h-4q-54 -37 -136 -62.5t-145 -25.5z" />
    <glyph glyph-name="uni0448" unicode="&#x448;" horiz-adv-x="1597" 
d="M178 0v1024h86v-944h492v944h86v-944h491v944h86v-1024h-1241z" />
    <glyph glyph-name="uni0449" unicode="&#x449;" horiz-adv-x="1628" 
d="M178 0v1024h86v-944h492v944h86v-944h491v944h86v-944h144v-326h-86v246h-1299z" />
    <glyph glyph-name="uni044A" unicode="&#x44a;" horiz-adv-x="1060" 
d="M315 0v946h-288v78h374v-410h236q42 0 80.5 -5.5t79 -18.5t73 -37t58.5 -57t40.5 -81.5t14.5 -109.5q0 -140 -89 -222.5t-261 -82.5h-318zM401 80h232q134 0 197 60t63 165q0 109 -63 169.5t-193 60.5h-236v-455z" />
    <glyph glyph-name="uni044B" unicode="&#x44b;" horiz-adv-x="1298" 
d="M1034 0v1024h86v-1024h-86zM178 0v1024h86v-410h236q42 0 80.5 -5.5t79 -18.5t73 -37t58.5 -57t40.5 -81.5t14.5 -109.5q0 -140 -89 -222.5t-261 -82.5h-318zM264 80h232q134 0 197 60t63 165q0 109 -63 169.5t-193 60.5h-236v-455z" />
    <glyph glyph-name="uni044C" unicode="&#x44c;" horiz-adv-x="923" 
d="M178 0v1024h86v-410h236q42 0 80.5 -5.5t79 -18.5t73 -37t58.5 -57t40.5 -81.5t14.5 -109.5q0 -140 -89 -222.5t-261 -82.5h-318zM264 80h232q134 0 197 60t63 165q0 109 -63 169.5t-193 60.5h-236v-455z" />
    <glyph glyph-name="uni044D" unicode="&#x44d;" horiz-adv-x="1103" 
d="M82 135l45 72q66 -76 159.5 -112t186.5 -36q171 0 295 114t137 298h-563v80h563q-9 123 -70.5 218.5t-156 145.5t-205.5 50q-183 0 -317 -131l-54 69q61 69 162 107.5t207 38.5t201.5 -39t167.5 -108t114.5 -171t42.5 -221q0 -159 -72 -282t-191.5 -188t-264.5 -65
q-110 0 -212.5 41t-174.5 119z" />
    <glyph glyph-name="uni044E" unicode="&#x44e;" horiz-adv-x="1607" 
d="M178 0v1024h86v-473h219q12 212 159.5 355t350.5 143q139 0 256 -70t185.5 -192t68.5 -269q0 -150 -68.5 -275t-185.5 -196.5t-256 -71.5q-200 0 -345.5 142t-162.5 354h-221v-471h-86zM573 518q0 -194 123 -326.5t297 -132.5t297 132.5t123 326.5q0 189 -122.5 318
t-297.5 129t-297.5 -129t-122.5 -318z" />
    <glyph glyph-name="uni044F" unicode="&#x44f;" horiz-adv-x="980" 
d="M72 0l256 362q9 14 20.5 29.5t19.5 24.5l7 8v4q-101 13 -175.5 91t-74.5 202q0 148 99 225.5t263 77.5h316v-1024h-86v414h-250l-287 -414h-108zM479 492h238v454h-225q-275 0 -275 -225q0 -107 74 -168t188 -61z" />
    <glyph glyph-name="uni0450" unicode="&#x450;" horiz-adv-x="1124" 
d="M106 510q0 126 41 229.5t110 170.5t158.5 103t188.5 36q101 0 182.5 -38t132 -103t77 -148t26.5 -178q0 -20 -4 -56h-821q0 -215 126 -341t312 -126q87 0 171.5 34t145.5 95l47 -71q-68 -65 -167 -103.5t-197 -38.5q-108 0 -204.5 38t-168.5 106.5t-114 170t-42 220.5z
M203 606h729q-7 178 -100 270.5t-230 92.5q-148 0 -260 -95t-139 -268zM586 1206l-162 228h115l137 -228h-90z" />
    <glyph glyph-name="uni0451" unicode="&#x451;" horiz-adv-x="1124" 
d="M106 510q0 126 41 229.5t110 170.5t158.5 103t188.5 36q101 0 182.5 -38t132 -103t77 -148t26.5 -178q0 -20 -4 -56h-821q0 -215 126 -341t312 -126q87 0 171.5 34t145.5 95l47 -71q-68 -65 -167 -103.5t-197 -38.5q-108 0 -204.5 38t-168.5 106.5t-114 170t-42 220.5z
M203 606h729q-7 178 -100 270.5t-230 92.5q-148 0 -260 -95t-139 -268zM684 1284v150h94v-150h-94zM403 1284v150h95v-150h-95z" />
    <glyph glyph-name="uni0452" unicode="&#x452;" horiz-adv-x="1200" 
d="M178 0v1180h-135v77h135v177h86v-177h488v-77h-488v-428l-4 -84h4q11 31 33 65.5t60 73.5t84.5 69t113 50t139.5 20q97 0 164.5 -27.5t104.5 -82t53 -124t16 -165.5v-600q0 -97 -24.5 -169.5t-59.5 -111t-82.5 -62t-84 -30t-74.5 -6.5l-52 4v80q18 -4 45 -4q30 0 58 5
t63.5 24t62 49.5t44.5 87t18 131.5v571q0 61 -4 105t-19 92.5t-41 78.5t-74 50t-114 20q-144 0 -259.5 -91t-153.5 -234q-17 -61 -17 -140v-397h-86z" />
    <glyph glyph-name="uni0453" unicode="&#x453;" horiz-adv-x="811" 
d="M178 0v1024h582v-78h-496v-946h-86zM389 1206l137 228h115l-162 -228h-90z" />
    <glyph glyph-name="uni0454" unicode="&#x454;" horiz-adv-x="1103" 
d="M106 510q0 119 42.5 221t115 171t169 108t202.5 39q68 0 131 -15t104 -36.5t72 -43t45 -36.5l14 -15l-53 -69l-14 14t-39.5 31.5t-64.5 40t-87 31.5t-108 14q-172 0 -295.5 -110.5t-140.5 -291.5h563v-80h-565q9 -189 135 -306.5t303 -117.5q63 0 121.5 15t97 37t67.5 44
t43 37l13 15l45 -72q-5 -7 -15.5 -17.5t-47.5 -38t-78 -48.5t-108 -38.5t-138 -17.5q-108 0 -204.5 38t-168.5 106.5t-114 170t-42 220.5z" />
    <glyph glyph-name="uni0455" unicode="&#x455;" horiz-adv-x="880" 
d="M84 123l55 65q58 -61 143.5 -95t174.5 -34q99 0 167 51t68 142q0 52 -31 92.5t-80.5 66.5t-109.5 49t-120.5 49.5t-110 58.5t-80.5 84t-31 120q0 131 95 204t233 73q86 0 167 -27t136 -84l-51 -70q-43 46 -114 71.5t-144 25.5q-97 0 -164.5 -47t-67.5 -140q0 -47 24 -85
t64 -61.5t90.5 -47t103 -41.5t103 -45t90.5 -57.5t64 -79t24 -109.5q0 -122 -92.5 -199.5t-234.5 -77.5q-104 0 -204 37.5t-167 110.5z" />
    <glyph glyph-name="uni0456" unicode="&#x456;" horiz-adv-x="442" 
d="M170 1284v150h102v-150h-102zM178 0v1024h86v-1024h-86z" />
    <glyph glyph-name="uni0457" unicode="&#x457;" horiz-adv-x="442" 
d="M178 0v1024h86v-1024h-86zM315 1284v150h95v-150h-95zM35 1284v150h94v-150h-94z" />
    <glyph glyph-name="uni0458" unicode="&#x458;" horiz-adv-x="442" 
d="M170 1284v150h102v-150h-102zM178 -43v1067h86v-1065q0 -97 -24.5 -169.5t-59.5 -111t-82.5 -62t-84 -30t-74.5 -6.5q-16 0 -52 4v80q12 -4 45 -4q30 0 58 5t63.5 24t62 49.5t44.5 87t18 131.5z" />
    <glyph glyph-name="uni0459" unicode="&#x459;" horiz-adv-x="1443" 
d="M63 -8v80q95 15 153 97.5t82 216t24 333.5v305h462v-410h236q42 0 80.5 -5.5t79 -18.5t73 -37t58.5 -57t40.5 -81.5t14.5 -109.5q0 -140 -89 -222.5t-261 -82.5h-318v944h-290v-225q0 -247 -39 -404.5t-114 -233t-192 -89.5zM784 80h232q134 0 197 60t63 165
q0 109 -63 169.5t-193 60.5h-236v-455z" />
    <glyph glyph-name="uni045A" unicode="&#x45a;" horiz-adv-x="1595" 
d="M178 0v1024h86v-422h588v422h86v-422h223q51 0 98.5 -8t96 -28.5t84 -52.5t58 -84.5t22.5 -119.5q0 -140 -90 -224.5t-261 -84.5h-317v522h-588v-522h-86zM938 80h231q261 0 261 229q0 104 -67.5 158.5t-201.5 54.5h-223v-442z" />
    <glyph glyph-name="uni045B" unicode="&#x45b;" horiz-adv-x="1200" 
d="M178 0v1180h-135v77h135v177h86v-177h488v-77h-488v-428l-4 -84h4q11 31 33 65.5t60 73.5t84.5 69t113 50t139.5 20q97 0 164.5 -27.5t104.5 -82t53 -124t16 -165.5v-547h-86v516q0 61 -4 105t-19 92.5t-41 78.5t-74 50t-114 20q-144 0 -259.5 -91t-153.5 -234
q-17 -61 -17 -140v-397h-86z" />
    <glyph glyph-name="uni045C" unicode="&#x45c;" horiz-adv-x="964" 
d="M178 0v1024h86v-453h178l336 453h109l-371 -487v-5l412 -532h-113l-373 492h-178v-492h-86zM438 1206l137 228h115l-162 -228h-90z" />
    <glyph glyph-name="uni045D" unicode="&#x45d;" horiz-adv-x="1196" 
d="M608 1206l-162 228h115l137 -228h-90zM178 0v1024h86v-729l-6 -166h4q72 103 117 166l559 729h80v-1024h-86v731l6 160h-4q-72 -97 -117 -160l-559 -731h-80z" />
    <glyph glyph-name="uni045E" unicode="&#x45e;" horiz-adv-x="1058" 
d="M84 -299q6 -5 17.5 -13.5t45 -22t64.5 -13.5q122 0 201 184l73 170l-424 1018h93l338 -817l36 -96h4q15 47 35 96l338 817h92l-526 -1264q-36 -85 -102 -137.5t-158 -52.5q-44 0 -85.5 14t-61.5 28l-19 15zM530 1174q-98 0 -169.5 60.5t-71.5 162.5v37h86v-31
q0 -69 45 -108.5t110 -39.5q64 0 111 40t47 110v29h84v-37q0 -102 -72 -162.5t-170 -60.5z" />
    <glyph glyph-name="uni045F" unicode="&#x45f;" horiz-adv-x="1126" 
d="M178 0v1024h86v-944h598v944h86v-1024h-342v-246h-86v246h-342z" />
    <glyph glyph-name="uni0462" unicode="&#x462;" horiz-adv-x="1368" 
d="M422 0v1106h-389v82h389v246h88v-246h416v-82h-416v-287h354q184 0 304 -106.5t120 -292.5q0 -192 -122 -306t-300 -114h-444zM510 82h348q150 0 244 89t94 249q0 148 -95.5 232.5t-242.5 84.5h-348v-655z" />
    <glyph glyph-name="uni0463" unicode="&#x463;" horiz-adv-x="1001" 
d="M252 0v946h-248v78h248v410h86v-410h348v-78h-348v-332h235q51 0 97 -8t93 -29t80.5 -54.5t55 -89.5t21.5 -128q0 -140 -89.5 -222.5t-261.5 -82.5h-317zM338 80h231q134 0 197 60t63 165q0 109 -63 169.5t-193 60.5h-235v-455z" />
    <glyph glyph-name="uni0472" unicode="&#x472;" horiz-adv-x="1691" 
d="M121 727q0 152 56 287.5t152 233t230.5 154t286.5 56.5t286.5 -56.5t230.5 -154t152 -233t56 -287.5q0 -208 -94.5 -380.5t-261 -272t-369.5 -99.5t-369.5 99.5t-261 272t-94.5 380.5zM846 59q171 0 312.5 82t225.5 225.5t93 319.5h-1264q9 -176 93 -319.5t226 -225.5
t314 -82zM846 1374q-172 0 -313.5 -79t-225.5 -217.5t-94 -309.5h1264q-9 171 -93 309.5t-225.5 217.5t-312.5 79z" />
    <glyph glyph-name="uni0473" unicode="&#x473;" horiz-adv-x="1269" 
d="M104 518q0 147 71 269t193 192t267 70t266.5 -70t192.5 -192t71 -269q0 -150 -71 -275t-192.5 -196.5t-266.5 -71.5q-108 0 -206 42.5t-169.5 114.5t-113.5 173t-42 213zM635 59q173 0 299 119.5t139 298.5h-878q15 -180 140.5 -299t299.5 -119zM635 965
q-174 0 -300.5 -117t-139.5 -291h878q-9 115 -69.5 208.5t-157.5 146.5t-211 53z" />
    <glyph glyph-name="uni0474" unicode="&#x474;" horiz-adv-x="1392" 
d="M588 0l-537 1434h96l431 -1160l55 -172h4q32 104 55 172l334 965q17 47 32.5 79t36 54t39 34t50 18.5t59 8t76.5 1.5h49v-84h-43h-30q-36 1 -52 0t-38.5 -7.5t-35.5 -21t-28 -40.5t-29 -67l-428 -1214h-96z" />
    <glyph glyph-name="uni0475" unicode="&#x475;" horiz-adv-x="1103" 
d="M467 0l-404 1024h93l315 -803l35 -110h4q19 61 35 110l219 625q35 101 90.5 139.5t161.5 38.5h43v-84h-43q-76 0 -111 -24t-63 -101l-293 -815h-82z" />
    <glyph glyph-name="uni048A" unicode="&#x48a;" horiz-adv-x="1570" 
d="M219 0v1434h88v-1125q0 -32 -2.5 -77t-4.5 -74l-3 -29h4q78 120 125 186l809 1119h82v-1352h184v-68l-123 -301h-82l101 287h-168v1124q0 32 2.5 77t4.5 75l3 29h-4q-72 -115 -119 -181l-815 -1124h-82zM772 1503q-98 0 -170 60.5t-72 162.5v37h86v-30q0 -69 45.5 -108.5
t110.5 -39.5q64 0 111 40t47 110v28h84v-37q0 -102 -72 -162.5t-170 -60.5z" />
    <glyph glyph-name="uni048B" unicode="&#x48b;" horiz-adv-x="1226" 
d="M178 0v1024h86v-729l-6 -166h4q72 103 117 166l559 729h80v-946h143v-68l-104 -256h-78l86 246h-133v731l6 160h-4q-72 -97 -117 -160l-559 -731h-80zM604 1174q-98 0 -170 60.5t-72 162.5v37h87v-31q0 -69 45 -108.5t110 -39.5q64 0 111 40t47 110v29h84v-37
q0 -102 -72 -162.5t-170 -60.5z" />
    <glyph glyph-name="uni048C" unicode="&#x48c;" horiz-adv-x="1329" 
d="M365 0v1200h-336v82h336v254h88v-254h348v-82h-348v-360h374q183 0 303.5 -112.5t120.5 -307.5q0 -192 -122 -306t-300 -114h-464zM453 82h368q150 0 244 89t94 249q0 157 -95.5 247.5t-242.5 90.5h-368v-676z" />
    <glyph glyph-name="uni048D" unicode="&#x48d;" horiz-adv-x="1021" 
d="M272 0v946h-247v78h247v410h86v-410h349v-78h-349v-332h236q42 0 80.5 -5.5t79 -18.5t73 -37t58.5 -57t40.5 -81.5t14.5 -109.5q0 -140 -89 -222.5t-261 -82.5h-318zM358 80h232q134 0 197 60t63 165q0 109 -63 169.5t-193 60.5h-236v-455z" />
    <glyph glyph-name="uni048E" unicode="&#x48e;" horiz-adv-x="1247" 
d="M219 0v1434h471q191 0 313.5 -113.5t122.5 -304.5q0 -205 -141 -324l129 -184l-65 -47l-129 186q-100 -53 -230 -53h-383v-594h-88zM725 930l66 47l147 -213q96 90 96 252q0 159 -94.5 247.5t-253.5 88.5h-379v-676h379q112 0 184 41z" />
    <glyph glyph-name="uni048F" unicode="&#x48f;" horiz-adv-x="1204" 
d="M178 -410v1434h86v-123q0 -21 -1.5 -41.5t-2.5 -30.5l-2 -10h4q3 9 10.5 24.5t37.5 55.5t68 70t105.5 55t147.5 25q203 0 322.5 -148t119.5 -389q0 -243 -129 -391l117 -141l-62 -54l-114 137q-114 -88 -267 -88q-74 0 -138.5 24t-103 58t-66.5 68t-39 58l-11 24h-4
q8 -37 8 -90v-527h-86zM682 307l61 53l142 -170q98 122 98 322q0 205 -99 329t-257 124q-73 0 -137 -26.5t-116 -79.5t-82 -143t-30 -206q0 -86 24 -166.5t67.5 -144t112.5 -102t152 -38.5q119 0 209 72z" />
    <glyph glyph-name="uni0490" unicode="&#x490;" horiz-adv-x="976" 
d="M219 0v1434h639v163h86v-245h-637v-1352h-88z" />
    <glyph glyph-name="uni0491" unicode="&#x491;" horiz-adv-x="790" 
d="M178 0v1024h479v143h82v-221h-475v-946h-86z" />
    <glyph glyph-name="uni0492" unicode="&#x492;" horiz-adv-x="999" 
d="M231 0v672h-133v82h133v680h723v-82h-635v-598h334v-82h-334v-672h-88z" />
    <glyph glyph-name="uni0493" unicode="&#x493;" horiz-adv-x="819" 
d="M178 0v473h-131v78h131v473h582v-78h-496v-395h277v-78h-277v-473h-86z" />
    <glyph glyph-name="uni0494" unicode="&#x494;" horiz-adv-x="1191" 
d="M219 0v1434h723v-82h-635v-578q47 28 138 54t171 26q52 0 95 -5t93 -19.5t88.5 -39.5t75.5 -68.5t61 -102t39 -144t15 -190.5q0 -169 -37.5 -295t-104 -198t-147.5 -106t-178 -34v80q58 0 109 14.5t102 53t87 98.5t58.5 159.5t22.5 227.5q0 137 -24.5 232t-74 151
t-117.5 80t-163 24q-152 0 -309 -80v-692h-88z" />
    <glyph glyph-name="uni0495" unicode="&#x495;" horiz-adv-x="968" 
d="M178 0v1024h580v-80h-494v-438q131 67 256 67q85 0 150.5 -26.5t105 -68.5t64.5 -100t34 -115t9 -120q0 -370 -279 -563l-47 70q240 160 240 493q0 72 -14 131t-44.5 109t-86 78t-132.5 28q-143 0 -256 -71v-418h-86z" />
    <glyph glyph-name="uni0496" unicode="&#x496;" horiz-adv-x="1767" 
d="M53 0l441 754v4l-412 676h102l385 -639h226v639h88v-639h225l385 639h102l-411 -676v-4l391 -672h166v-369h-86v287h-133l-414 713h-225v-713h-88v713h-226l-413 -713h-103z" />
    <glyph glyph-name="uni0497" unicode="&#x497;" horiz-adv-x="1482" 
d="M47 0l361 522v4l-326 498h100l299 -459h185v459h86v-459h184l299 459h100l-325 -498v-4l305 -442h127v-326h-86v246h-94l-330 485h-180v-485h-86v485h-181l-329 -485h-109z" />
    <glyph glyph-name="uni0498" unicode="&#x498;" horiz-adv-x="1089" 
d="M74 152l59 69q61 -70 159 -115t202 -45q163 0 270.5 92t107.5 244q0 144 -98 227t-242 83h-182v81h146q133 0 229 83t96 214q0 124 -78.5 205.5t-238.5 81.5q-193 0 -338 -123l-49 76q162 133 387 133q198 0 303.5 -100.5t105.5 -265.5q0 -124 -64 -205.5t-159 -122.5v-4
q125 -32 200 -127t75 -236q0 -177 -117.5 -291t-302.5 -129v-264h-86v264q-111 6 -216.5 53t-168.5 122z" />
    <glyph glyph-name="uni0499" unicode="&#x499;" horiz-adv-x="886" 
d="M72 123l55 65q118 -131 283 -131q111 0 194.5 59t83.5 169q0 100 -74 153.5t-211 53.5h-122v79h110q122 0 190 50t68 147t-65.5 147t-171.5 50q-148 0 -252 -97l-51 70q129 111 311 111q143 0 232 -70t89 -203q0 -174 -166 -235v-4q94 -21 148.5 -85t54.5 -165
q0 -131 -87.5 -211t-217.5 -96v-226h-86v221q-187 10 -315 148z" />
    <glyph glyph-name="uni049A" unicode="&#x49a;" horiz-adv-x="1261" 
d="M219 0v1434h88v-639h266l410 639h107l-441 -676v-4l418 -672h168v-369h-86v287h-137l-439 713h-266v-713h-88z" />
    <glyph glyph-name="uni049B" unicode="&#x49b;" horiz-adv-x="1026" 
d="M178 0v1024h86v-453h178l336 453h109l-371 -487v-5l350 -452h123v-326h-86v246h-88l-373 492h-178v-492h-86z" />
    <glyph glyph-name="uni049C" unicode="&#x49c;" horiz-adv-x="1288" 
d="M219 0v1434h88v-639h176v266h84v-266h125l410 639h106l-440 -676v-4l469 -754h-107l-438 713h-125v-267h-84v267h-176v-713h-88z" />
    <glyph glyph-name="uni049D" unicode="&#x49d;" horiz-adv-x="1087" 
d="M178 0v1024h86v-453h144v224h79v-224h78l336 453h109l-371 -487v-5l412 -532h-113l-373 492h-78v-228h-79v228h-144v-492h-86z" />
    <glyph glyph-name="uni049E" unicode="&#x49e;" horiz-adv-x="1179" 
d="M12 1092v82h217v260h88v-260h230v-82h-230v-297h267l409 639h107l-441 -676v-4l469 -754h-106l-438 713h-267v-713h-88v1092h-217z" />
    <glyph glyph-name="uni049F" unicode="&#x49f;" horiz-adv-x="966" 
d="M178 0v1085h-129v78h129v271h86v-271h279v-78h-279v-464h182l332 403h113l-371 -440v-4l406 -580h-109l-371 541h-182v-541h-86z" />
    <glyph glyph-name="uni04A0" unicode="&#x4a0;" horiz-adv-x="1462" 
d="M512 0v1352h-473v82h561v-639h266l410 639h106l-440 -676v-4l469 -754h-106l-439 713h-266v-713h-88z" />
    <glyph glyph-name="uni04A1" unicode="&#x4a1;" horiz-adv-x="1101" 
d="M315 0v946h-288v78h374v-453h179l335 453h109l-371 -487v-5l412 -532h-113l-372 492h-179v-492h-86z" />
    <glyph glyph-name="uni04A2" unicode="&#x4a2;" horiz-adv-x="1566" 
d="M219 0v1434h88v-674h910v674h88v-1352h176v-369h-86v287h-178v678h-910v-678h-88z" />
    <glyph glyph-name="uni04A3" unicode="&#x4a3;" horiz-adv-x="1230" 
d="M178 0v1024h86v-457h670v457h86v-944h154v-326h-87v246h-153v487h-670v-487h-86z" />
    <glyph glyph-name="uni04A4" unicode="&#x4a4;" horiz-adv-x="1869" 
d="M219 0v1434h88v-674h807v674h723v-82h-635v-1352h-88v678h-807v-678h-88z" />
    <glyph glyph-name="uni04A5" unicode="&#x4a5;" horiz-adv-x="1443" 
d="M178 0v1024h86v-457h588v457h541v-78h-455v-946h-86v487h-588v-487h-86z" />
    <glyph glyph-name="uni04A6" unicode="&#x4a6;" horiz-adv-x="2029" 
d="M219 0v1434h936v-639q47 27 138 53t171 26q52 0 95 -5t93 -20.5t88.5 -41t75.5 -70.5t61 -105.5t39 -149t15 -197.5q0 -169 -37.5 -295t-104 -198t-147.5 -106t-178 -34v80q58 0 109 14.5t102 53t87 98.5t58.5 159.5t22.5 227.5q0 143 -24.5 242t-74 157t-117.5 83.5
t-163 25.5q-140 0 -309 -80v-713h-88v1352h-760v-1352h-88z" />
    <glyph glyph-name="uni04A7" unicode="&#x4a7;" horiz-adv-x="1599" 
d="M178 0v1024h699v-477q131 67 256 67q90 0 159 -27.5t110.5 -71.5t68 -105t36 -120t9.5 -126q0 -383 -279 -584l-47 70q240 167 240 514q0 76 -14.5 138t-47.5 115.5t-92.5 83t-142.5 29.5q-143 0 -256 -71v-459h-86v944h-527v-944h-86z" />
    <glyph glyph-name="uni04A8" unicode="&#x4a8;" horiz-adv-x="1902" 
d="M125 733q0 126 34 237.5t90.5 193t131 144t154.5 99.5t163 51v-84q-91 -22 -173.5 -71t-153 -126t-112.5 -192t-42 -252q0 -139 41 -261.5t116.5 -213.5t189.5 -144t253 -53q160 0 328 68q-187 109 -290 291.5t-103 408.5q0 124 33 228t86 172t122 115.5t139 68.5t138 21
q78 0 149 -21t136 -67.5t113 -115.5t76 -172t28 -229q0 -211 -119.5 -393.5t-313.5 -302.5q151 -51 332 -51h80v-82h-80q-240 0 -426 80q-212 -105 -426 -105q-314 0 -504 208t-190 550zM844 829q0 -210 103 -384.5t294 -270.5q194 106 316 280t122 375q0 114 -24 205
t-63.5 149t-93.5 96.5t-110.5 54.5t-117.5 16q-54 0 -111 -18t-114 -59t-101.5 -99.5t-72 -148t-27.5 -196.5z" />
    <glyph glyph-name="uni04A9" unicode="&#x4a9;" horiz-adv-x="1548" 
d="M109 522q0 87 23.5 165t61.5 135.5t88.5 104.5t103 76t106.5 46l26 -78q-43 -14 -85.5 -38t-85 -63.5t-75 -88.5t-53 -116.5t-20.5 -142.5q0 -98 28 -180.5t83.5 -146.5t148 -100t213.5 -36q135 0 262 50q-145 82 -230.5 215t-85.5 301q0 173 120.5 298.5t293.5 125.5
q176 0 287 -115t111 -309q0 -152 -84 -285t-224 -225q108 -31 221 -31h87v-84h-87q-169 0 -315 61q-177 -86 -356 -86q-144 0 -254.5 44t-176.5 121t-99 173.5t-33 208.5zM709 625q0 -155 86.5 -279t232.5 -194q141 77 226 200t85 273q0 161 -86 250.5t-221 89.5
q-132 0 -227.5 -96t-95.5 -244z" />
    <glyph glyph-name="uni04AA" unicode="&#x4aa;" horiz-adv-x="1474" 
d="M125 727q0 154 53 289.5t146 232.5t226 153t286 56q144 0 280 -44.5t232 -135.5l-54 -66q-86 77 -209 119.5t-247 42.5q-180 0 -322 -84t-220.5 -231.5t-78.5 -331.5q0 -139 46 -261.5t127 -212.5t199 -142t255 -52q134 0 262 50.5t223 144.5l55 -61q-213 -206 -503 -216
v-264h-86v264q-197 12 -351 115.5t-236.5 269.5t-82.5 365z" />
    <glyph glyph-name="uni04AB" unicode="&#x4ab;" horiz-adv-x="1110" 
d="M109 510q0 119 42.5 221t114.5 171t168.5 108t202.5 39q103 0 202.5 -37.5t164.5 -108.5l-54 -69q-56 59 -140.5 95t-172.5 36q-185 0 -311.5 -126.5t-126.5 -328.5q0 -200 127 -325.5t311 -125.5q96 0 188 39t154 109l45 -72q-62 -69 -158.5 -112.5t-203.5 -47.5v-221
h-87v226q-202 21 -334 164.5t-132 365.5z" />
    <glyph glyph-name="uni04AC" unicode="&#x4ac;" horiz-adv-x="1228" 
d="M567 0v1352h-534v82h1157v-82h-535v-1270h176v-369h-86v287h-178z" />
    <glyph glyph-name="uni04AD" unicode="&#x4ad;" horiz-adv-x="972" 
d="M440 0v944h-389v80h864v-80h-389v-864h154v-326h-86v246h-154z" />
    <glyph glyph-name="uni04AE" unicode="&#x4ae;" horiz-adv-x="1136" 
d="M524 0v623l-487 811h100l340 -566l88 -161h4q45 91 88 161l340 566h101l-486 -811v-623h-88z" />
    <glyph glyph-name="uni04AF" unicode="&#x4af;" horiz-adv-x="1019" 
d="M469 80l-408 944h93l315 -735q10 -23 20 -49t15 -41l4 -15h4q16 54 39 105l315 735h90l-405 -944v-490h-82v490z" />
    <glyph glyph-name="uni04B0" unicode="&#x4b0;" horiz-adv-x="1136" 
d="M248 543v80h276l-487 811h100l340 -566l88 -161h4q45 91 88 161l340 566h101l-486 -811h267v-80h-267v-543h-88v543h-276z" />
    <glyph glyph-name="uni04B1" unicode="&#x4b1;" horiz-adv-x="1017" 
d="M236 0v80h233l-403 944h92l311 -735q10 -23 20 -49t15 -41l4 -15h4q16 54 39 105l311 735h90l-401 -944h233v-80h-233v-410h-82v410h-233z" />
    <glyph glyph-name="uni04B2" unicode="&#x4b2;" horiz-adv-x="1230" 
d="M43 0l463 758l-412 676h107l274 -457l94 -160h4q46 90 89 160l276 457h106l-415 -676l413 -676h166v-369h-86v287h-133l-332 545l-92 153h-4q-43 -83 -86 -155l-328 -543h-104z" />
    <glyph glyph-name="uni04B3" unicode="&#x4b3;" horiz-adv-x="1009" 
d="M45 0l369 541l-330 483h104l248 -373l35 -57h4q19 30 35 57l248 373h104l-330 -483l314 -461h123v-326h-86v246h-88l-283 424l-37 59h-4q-17 -28 -37 -59l-282 -424h-107z" />
    <glyph glyph-name="uni04B4" unicode="&#x4b4;" horiz-adv-x="1804" 
d="M512 0v1352h-473v82h1034v-82h-473v-1270h854v1352h88v-1352h176v-369h-86v287h-1120z" />
    <glyph glyph-name="uni04B5" unicode="&#x4b5;" horiz-adv-x="1449" 
d="M432 0v944h-381v80h848v-80h-381v-864h637v944h86v-944h143v-326h-86v246h-866z" />
    <glyph glyph-name="uni04B6" unicode="&#x4b6;" horiz-adv-x="1271" 
d="M545 580q-422 0 -422 395v459h88v-445q0 -164 79 -244.5t255 -80.5q105 0 209 38t168 82v650h88v-1352h176v-369h-86v287h-178v625l4 67h-4q-72 -42 -175.5 -77t-201.5 -35z" />
    <glyph glyph-name="uni04B7" unicode="&#x4b7;" horiz-adv-x="1034" 
d="M446 389q-342 0 -342 318v317h86v-317q0 -38 4.5 -67.5t20.5 -62.5t42.5 -54.5t74.5 -35.5t114 -14q84 0 159.5 29t121.5 63v459h86v-944h170v-326h-86v246h-170v408l4 69h-4q-54 -37 -136 -62.5t-145 -25.5z" />
    <glyph glyph-name="uni04B8" unicode="&#x4b8;" horiz-adv-x="1226" 
d="M532 348v232q-411 3 -411 395v459h88v-445q0 -162 76.5 -243t246.5 -82v299h84v-295q89 12 171.5 46t132.5 70v650h88v-1434h-88v625l4 67h-4q-54 -33 -137 -64.5t-167 -43.5v-236h-84z" />
    <glyph glyph-name="uni04B9" unicode="&#x4b9;" horiz-adv-x="991" 
d="M438 223v166q-334 3 -334 318v317h86v-317q0 -48 8.5 -84t32.5 -72.5t76.5 -56.5t130.5 -21v260h80v-254q117 17 209 86v459h86v-1024h-86v408l4 69h-4q-83 -58 -209 -82v-172h-80z" />
    <glyph glyph-name="uni04BA" unicode="&#x4ba;" horiz-adv-x="1239" 
d="M219 0v1434h88v-535l-4 -68h4q70 41 181.5 76t230.5 35q387 0 387 -395v-547h-88v532q0 163 -71.5 244.5t-227.5 81.5q-122 0 -235 -39.5t-177 -85.5v-733h-88z" />
    <glyph glyph-name="uni04BB" unicode="&#x4bb;" horiz-adv-x="1200" 
d="M178 0v1434h86v-590q0 -21 -2 -42t-4 -32l-2 -10h4q12 32 34 67.5t60.5 75.5t86 72t114 53t139.5 21q97 0 164.5 -27.5t104.5 -82.5t53 -124.5t16 -165.5v-649h-86v618q0 61 -4 105t-19 93t-41 79t-74 50t-114 20q-116 0 -214 -58.5t-157 -165t-59 -237.5v-504h-86z" />
    <glyph glyph-name="uni04BC" unicode="&#x4bc;" horiz-adv-x="1732" 
d="M102 1034q0 88 13 158l18 92h90l-18 -92q-15 -76 -15 -158q0 -87 46.5 -143.5t132.5 -56.5h30q17 129 68.5 241.5t131.5 198.5t194.5 135t248.5 49q123 0 225.5 -42.5t177.5 -122.5t117 -204t42 -280v-57h-1121q-4 -133 26.5 -247t86 -195t131 -138.5t161 -85
t175.5 -27.5q83 0 163.5 19.5t136 46.5t99.5 54.5t65 46.5l21 20l49 -76q-8 -8 -22.5 -21t-65.5 -46.5t-108.5 -59.5t-149.5 -47t-190 -21q-143 0 -267 52.5t-213 146.5t-139.5 231.5t-50.5 301.5v45h-24q-125 0 -195 78t-70 204zM492 834h1017q0 105 -27.5 199t-81.5 171.5
t-146.5 123.5t-211.5 46q-222 0 -368.5 -152.5t-181.5 -387.5z" />
    <glyph glyph-name="uni04BD" unicode="&#x4bd;" horiz-adv-x="1335" 
d="M92 770q0 31 9 80.5t20 81.5h86q-13 -31 -22 -77.5t-9 -78.5q0 -88 31.5 -128t95.5 -40h21q30 206 168 323.5t323 117.5q101 0 182.5 -38t132 -103t77 -148t26.5 -178l-4 -56h-821q0 -215 126 -341t312 -126q55 0 108 13.5t89 32.5t64.5 37.5t42.5 31.5l13 14l47 -71
q-6 -6 -17 -15.5t-47.5 -34t-76 -43t-100.5 -34t-123 -15.5q-108 0 -204.5 38t-168.5 106.5t-114 170t-42 220.5v16h-18q-207 0 -207 244zM414 606h729q-7 178 -100 270.5t-230 92.5q-148 0 -260 -95t-139 -268z" />
    <glyph glyph-name="uni04BE" unicode="&#x4be;" horiz-adv-x="1732" 
d="M102 1034q0 88 13 158l18 92h90l-18 -92q-15 -76 -15 -158q0 -87 46.5 -143.5t132.5 -56.5h30q17 129 68.5 241.5t131.5 198.5t194.5 135t248.5 49q123 0 225.5 -42.5t177.5 -122.5t117 -204t42 -280v-57h-1121q-4 -133 26.5 -247t86 -195t131 -138.5t161 -85
t175.5 -27.5q83 0 163.5 19.5t136 46.5t99.5 54.5t65 46.5l21 20l49 -76q-7 -8 -21 -20.5t-62.5 -44.5t-103.5 -57.5t-142.5 -47.5t-180.5 -25v-262h-86v264q-270 21 -440 219.5t-170 510.5v45h-24q-125 0 -195 78t-70 204zM492 834h1017q0 105 -27.5 199t-81.5 171.5
t-146.5 123.5t-211.5 46q-222 0 -368.5 -152.5t-181.5 -387.5z" />
    <glyph glyph-name="uni04BF" unicode="&#x4bf;" horiz-adv-x="1337" 
d="M94 770q0 31 9 80.5t20 81.5h86q-13 -31 -22 -77.5t-9 -78.5q0 -88 31.5 -128t95.5 -40h21q30 206 168 323.5t323 117.5q101 0 182.5 -38t132 -103t77 -148t26.5 -178l-4 -56h-821q0 -215 126 -341t312 -126q55 0 108 13.5t89 32.5t64.5 37.5t42.5 31.5l13 14l47 -71
q-6 -6 -17 -15.5t-47.5 -34t-76 -43t-100.5 -34t-123 -15.5h-4v-221h-86v230q-191 29 -315 171t-124 355v16h-18q-207 0 -207 244zM416 606h729q-7 178 -100 270.5t-230 92.5q-148 0 -260 -95t-139 -268z" />
    <glyph glyph-name="uni04C0" unicode="&#x4c0;" horiz-adv-x="526" 
d="M219 0v1434h88v-1434h-88z" />
    <glyph glyph-name="uni04C1" unicode="&#x4c1;" horiz-adv-x="1677" 
d="M53 0l441 754v4l-412 676h102l385 -639h226v639h88v-639h225l385 639h102l-411 -676v-4l440 -754h-102l-414 713h-225v-713h-88v713h-226l-413 -713h-103zM838 1503q-98 0 -170 60.5t-72 162.5v37h86v-30q0 -69 45.5 -108.5t110.5 -39.5q64 0 110.5 40t46.5 110v28h84
v-37q0 -102 -71.5 -162.5t-169.5 -60.5z" />
    <glyph glyph-name="uni04C2" unicode="&#x4c2;" horiz-adv-x="1417" 
d="M47 0l361 522v4l-326 498h100l299 -459h185v459h86v-459h184l299 459h100l-325 -498v-4l360 -522h-108l-330 485h-180v-485h-86v485h-181l-329 -485h-109zM709 1174q-98 0 -170 60.5t-72 162.5v37h86v-31q0 -69 45.5 -108.5t110.5 -39.5q64 0 110.5 40t46.5 110v29h84
v-37q0 -102 -71.5 -162.5t-169.5 -60.5z" />
    <glyph glyph-name="uni04C3" unicode="&#x4c3;" horiz-adv-x="1220" 
d="M219 0v1434h88v-639h266l410 639h107l-424 -662q83 -19 150.5 -52.5t112.5 -71t78.5 -84.5t52 -89t29.5 -89t14 -80t3 -66q0 -146 -38 -260.5t-103 -184.5t-148 -106.5t-178 -36.5v80q57 0 109 15t102 52.5t86.5 94t59 145.5t22.5 201q0 105 -30.5 187t-82 135
t-123.5 87.5t-150.5 49t-168.5 14.5h-156v-713h-88z" />
    <glyph glyph-name="uni04C4" unicode="&#x4c4;" horiz-adv-x="987" 
d="M178 0v1024h86v-457h174l340 457h109l-355 -465v-4q353 -87 353 -467q0 -98 -24.5 -182.5t-67.5 -145.5t-90 -104t-103 -76l-45 74q108 57 174 166t66 268q0 106 -31.5 184.5t-90 124.5t-134.5 68t-172 22h-103v-487h-86z" />
    <glyph glyph-name="uni04C5" unicode="&#x4c5;" horiz-adv-x="1370" 
d="M18 70q87 11 150.5 72t103 155.5t63 237.5t32 297.5t8.5 357.5v244h741v-1352h184v-68l-122 -301h-82l100 287h-168v1352h-567v-162q0 -157 -4 -278t-16 -248t-32 -220.5t-53.5 -180t-79.5 -142.5t-111 -92.5t-147 -44.5v86z" />
    <glyph glyph-name="uni04C6" unicode="&#x4c6;" horiz-adv-x="1081" 
d="M41 -8v80q139 22 198.5 183.5t59.5 463.5v305h573v-946h144v-68l-105 -256h-77l86 246h-134v944h-401v-225q0 -248 -39 -405t-113.5 -232.5t-191.5 -89.5z" />
    <glyph glyph-name="uni04C7" unicode="&#x4c7;" horiz-adv-x="1523" 
d="M219 0v1434h88v-674h910v674h88v-1403q0 -97 -25 -169.5t-61 -111t-85 -62t-86 -30t-75 -6.5v80q29 0 57 5t63.5 24t61.5 49.5t44 87t18 131.5v649h-910v-678h-88z" />
    <glyph glyph-name="uni04C8" unicode="&#x4c8;" horiz-adv-x="1200" 
d="M178 0v1024h86v-457h670v457h88v-956q0 -87 -17.5 -159t-43 -120.5t-66 -90.5t-75.5 -66.5t-83 -51.5l-45 74q242 113 242 414v419h-670v-487h-86z" />
    <glyph glyph-name="uni04C9" unicode="&#x4c9;" horiz-adv-x="1558" 
d="M219 0v1434h88v-674h910v674h88v-1352h184v-68l-123 -301h-82l100 287h-167v678h-910v-678h-88z" />
    <glyph glyph-name="uni04CA" unicode="&#x4ca;" horiz-adv-x="1228" 
d="M178 0v1024h86v-457h670v457h86v-946h143v-68l-104 -256h-78l86 246h-133v487h-670v-487h-86z" />
    <glyph glyph-name="uni04CB" unicode="&#x4cb;" horiz-adv-x="1228" 
d="M545 580q-422 0 -422 395v459h88v-445q0 -164 79 -244.5t255 -80.5q105 0 209 38t168 82v650h88v-1434h-179v-287h-86v369h177v543l4 67h-4q-72 -42 -175.5 -77t-201.5 -35z" />
    <glyph glyph-name="uni04CC" unicode="&#x4cc;" horiz-adv-x="1007" 
d="M590 80h153v326l5 69h-5q-57 -36 -151 -61t-160 -25q-89 0 -154 24t-102 68.5t-54.5 100.5t-17.5 125v317h86v-317q0 -47 9 -84t33 -73.5t74.5 -56.5t125.5 -20q90 0 176.5 29.5t134.5 62.5v459h86v-1024h-153v-246h-86v326z" />
    <glyph glyph-name="uni04CD" unicode="&#x4cd;" horiz-adv-x="1742" 
d="M164 0l115 1434h86l417 -902l70 -161h4q37 91 70 161l417 902h87l108 -1352h180v-68l-123 -301h-82l101 287h-158l-88 1094q-3 31 -4.5 78.5t-1.5 79.5v32h-4q-41 -120 -74 -190l-385 -818h-90l-383 818q-14 30 -33 78.5t-31 81.5l-12 34h-4q0 -124 -6 -194l-88 -1094
h-88z" />
    <glyph glyph-name="uni04CE" unicode="&#x4ce;" horiz-adv-x="1474" 
d="M139 0l82 1024h82l346 -678l70 -149h4q35 81 70 149l348 678h82l75 -946h140v-68l-105 -256h-78l86 246h-122l-58 711q-2 22 -2.5 66t-0.5 77l1 33h-4q-21 -58 -68 -148l-321 -626h-88l-322 622q-19 36 -36 74t-24 58l-7 20h-4q2 -127 -2 -176l-58 -711h-86z" />
    <glyph glyph-name="uni04CF" unicode="&#x4cf;" horiz-adv-x="442" 
d="M178 0v1434h86v-1434h-86z" />
    <glyph glyph-name="uni04D0" unicode="&#x4d0;" horiz-adv-x="1277" 
d="M55 0l537 1434h94l537 -1434h-95l-186 496h-608l-184 -496h-95zM365 578h546l-217 581q-10 27 -23.5 70t-21.5 73l-8 29h-4q-30 -111 -53 -172zM639 1503q-98 0 -170 60.5t-72 162.5v37h86v-30q0 -69 45.5 -108.5t110.5 -39.5q64 0 111 40t47 110v28h84v-37
q0 -102 -72 -162.5t-170 -60.5z" />
    <glyph glyph-name="uni04D1" unicode="&#x4d1;" horiz-adv-x="1042" 
d="M86 272q0 56 16.5 103.5t42 81.5t66 61t79.5 44.5t92 30t93 18.5t93 9.5t82.5 4t70.5 0.5h67v34q0 306 -280 306q-161 0 -293 -99l-49 70q59 52 153.5 82.5t192.5 30.5q178 0 270 -98t92 -289v-662h-86v135q0 24 2 47t4 34l3 11h-4q-41 -107 -136.5 -179.5t-222.5 -72.5
q-64 0 -124.5 18t-111.5 53t-81.5 93.5t-30.5 132.5zM176 279q0 -89 69.5 -156.5t192.5 -67.5q80 0 148 39t111 102t67 139.5t24 153.5v56h-65q-41 0 -65.5 -0.5t-73 -2.5t-81 -6.5t-79.5 -14t-78 -22t-66 -33t-55.5 -46.5t-34.5 -62t-14 -79zM530 1174q-98 0 -169.5 60.5
t-71.5 162.5v37h86v-31q0 -69 45 -108.5t110 -39.5q64 0 111 40t47 110v29h84v-37q0 -102 -72 -162.5t-170 -60.5z" />
    <glyph glyph-name="uni04D2" unicode="&#x4d2;" horiz-adv-x="1277" 
d="M55 0l537 1434h94l537 -1434h-95l-186 496h-608l-184 -496h-95zM365 578h546l-217 581q-10 27 -23.5 70t-21.5 73l-8 29h-4q-30 -111 -53 -172zM733 1614v149h94v-149h-94zM453 1614v149h94v-149h-94z" />
    <glyph glyph-name="uni04D3" unicode="&#x4d3;" horiz-adv-x="1042" 
d="M86 272q0 56 16.5 103.5t42 81.5t66 61t79.5 44.5t92 30t93 18.5t93 9.5t82.5 4t70.5 0.5h67v34q0 306 -280 306q-161 0 -293 -99l-49 70q59 52 153.5 82.5t192.5 30.5q178 0 270 -98t92 -289v-662h-86v135q0 24 2 47t4 34l3 11h-4q-41 -107 -136.5 -179.5t-222.5 -72.5
q-64 0 -124.5 18t-111.5 53t-81.5 93.5t-30.5 132.5zM176 279q0 -89 69.5 -156.5t192.5 -67.5q80 0 148 39t111 102t67 139.5t24 153.5v56h-65q-41 0 -65.5 -0.5t-73 -2.5t-81 -6.5t-79.5 -14t-78 -22t-66 -33t-55.5 -46.5t-34.5 -62t-14 -79zM608 1284v150h94v-150h-94z
M328 1284v150h94v-150h-94z" />
    <glyph glyph-name="uni04D4" unicode="&#x4d4;" horiz-adv-x="1685" 
d="M43 0l588 1434h919v-82h-696v-588h571v-82h-571v-600h735v-82h-823v682h-350l-279 -682h-94zM451 764h315v588h-74z" />
    <glyph glyph-name="uni04D5" unicode="&#x4d5;" horiz-adv-x="1781" 
d="M88 272q0 55 14 100.5t35.5 78.5t57.5 59t70 43t84 29t88.5 18t94 9.5t89.5 4t86 0.5h81v45q0 306 -288 306q-156 0 -285 -99l-49 70q59 53 151 83t187 30q293 0 352 -240h4q62 118 167.5 179t238.5 61q131 0 226.5 -63.5t141 -165.5t45.5 -228q0 -25 -4 -57h-801
q0 -224 116.5 -350t301.5 -126q87 0 172 34t146 95l47 -71q-67 -64 -166.5 -103t-198.5 -39q-160 0 -283 83.5t-178 230.5h-4q-5 -23 -17.5 -54.5t-43.5 -79t-71.5 -86t-108 -66.5t-146.5 -28q-148 0 -250 78t-102 219zM883 614h706q-4 90 -32.5 160t-75 111t-102.5 61.5
t-119 20.5q-146 0 -249 -91t-128 -262zM178 279q0 -92 69.5 -158t192.5 -66q80 0 147.5 39t110.5 102t66.5 139.5t23.5 153.5v46h-141q-49 0 -86 -1.5t-88.5 -7t-89.5 -16t-79 -29.5t-66.5 -45.5t-42.5 -66.5t-17 -90z" />
    <glyph glyph-name="uni04D6" unicode="&#x4d6;" horiz-adv-x="1138" 
d="M219 0v1434h785v-82h-697v-588h572v-82h-572v-600h735v-82h-823zM621 1503q-98 0 -170 60.5t-72 162.5v37h86v-30q0 -69 45.5 -108.5t110.5 -39.5q64 0 110.5 40t46.5 110v28h84v-37q0 -102 -71.5 -162.5t-169.5 -60.5z" />
    <glyph glyph-name="uni04D7" unicode="&#x4d7;" horiz-adv-x="1124" 
d="M106 510q0 126 41 229.5t110 170.5t158.5 103t188.5 36q101 0 182.5 -38t132 -103t77 -148t26.5 -178q0 -20 -4 -56h-821q0 -215 126 -341t312 -126q87 0 171.5 34t145.5 95l47 -71q-68 -65 -167 -103.5t-197 -38.5q-108 0 -204.5 38t-168.5 106.5t-114 170t-42 220.5z
M203 606h729q-7 178 -100 270.5t-230 92.5q-148 0 -260 -95t-139 -268zM594 1174q-98 0 -170 60.5t-72 162.5v37h86v-31q0 -69 45.5 -108.5t110.5 -39.5q64 0 111 40t47 110v29h84v-37q0 -102 -72 -162.5t-170 -60.5z" />
    <glyph glyph-name="uni04D8" unicode="&#x4d8;" horiz-adv-x="1470" 
d="M121 702l2 58h1128q0 269 -157.5 441.5t-401.5 172.5q-84 0 -164 -16.5t-134 -40.5t-96.5 -48t-62.5 -41l-20 -16l-53 66q8 7 22 19.5t65 43.5t107.5 54.5t148.5 43t189 19.5q188 0 335 -88t230.5 -255t83.5 -388q0 -160 -43 -297.5t-122 -238.5t-199 -158.5t-266 -57.5
q-104 0 -192 25.5t-162.5 81t-126.5 139.5t-81.5 206t-29.5 275zM215 678q0 -302 124.5 -459.5t391.5 -157.5q226 0 371 169t145 448h-1032z" />
    <glyph glyph-name="uni04D9" unicode="&#x4d9;" horiz-adv-x="1128" 
d="M104 475l5 55h821q0 188 -115 311.5t-283 123.5q-62 0 -121.5 -13.5t-100.5 -32t-73 -37.5t-47 -32l-16 -14l-47 71q7 6 19 15.5t53.5 34t86 43t112.5 34t137 15.5q208 0 346.5 -147.5t138.5 -387.5q0 -132 -39 -236.5t-105.5 -169.5t-151.5 -99t-181 -34
q-213 0 -326 136.5t-113 363.5zM195 451q4 -110 33 -189t79 -123t108.5 -64t129.5 -20q69 0 132.5 23.5t118 69.5t89 124t39.5 179h-729z" />
    <glyph glyph-name="uni04DA" unicode="&#x4da;" horiz-adv-x="1470" 
d="M825 1614v149h95v-149h-95zM545 1614v149h94v-149h-94zM121 702l2 58h1128q0 269 -157.5 441.5t-401.5 172.5q-84 0 -164 -16.5t-134 -40.5t-96.5 -48t-62.5 -41l-20 -16l-53 66q8 7 22 19.5t65 43.5t107.5 54.5t148.5 43t189 19.5q188 0 335 -88t230.5 -255t83.5 -388
q0 -160 -43 -297.5t-122 -238.5t-199 -158.5t-266 -57.5q-104 0 -192 25.5t-162.5 81t-126.5 139.5t-81.5 206t-29.5 275zM215 678q0 -302 124.5 -459.5t391.5 -157.5q226 0 371 169t145 448h-1032z" />
    <glyph glyph-name="uni04DB" unicode="&#x4db;" horiz-adv-x="1128" 
d="M639 1284v150h94v-150h-94zM358 1284v150h95v-150h-95zM104 475l5 55h821q0 188 -115 311.5t-283 123.5q-62 0 -121.5 -13.5t-100.5 -32t-73 -37.5t-47 -32l-16 -14l-47 71q7 6 19 15.5t53.5 34t86 43t112.5 34t137 15.5q208 0 346.5 -147.5t138.5 -387.5
q0 -132 -39 -236.5t-105.5 -169.5t-151.5 -99t-181 -34q-213 0 -326 136.5t-113 363.5zM195 451q4 -110 33 -189t79 -123t108.5 -64t129.5 -20q69 0 132.5 23.5t118 69.5t89 124t39.5 179h-729z" />
    <glyph glyph-name="uni04DC" unicode="&#x4dc;" horiz-adv-x="1677" 
d="M934 1614v149h94v-149h-94zM653 1614v149h95v-149h-95zM53 0l441 754v4l-412 676h102l385 -639h226v639h88v-639h225l385 639h102l-411 -676v-4l440 -754h-102l-414 713h-225v-713h-88v713h-226l-413 -713h-103z" />
    <glyph glyph-name="uni04DD" unicode="&#x4dd;" horiz-adv-x="1417" 
d="M801 1284v150h94v-150h-94zM520 1284v150h94v-150h-94zM47 0l361 522v4l-326 498h100l299 -459h185v459h86v-459h184l299 459h100l-325 -498v-4l360 -522h-108l-330 485h-180v-485h-86v485h-181l-329 -485h-109z" />
    <glyph glyph-name="uni04DE" unicode="&#x4de;" horiz-adv-x="1085" 
d="M631 1614v149h94v-149h-94zM350 1614v149h94v-149h-94zM74 152l59 69q61 -70 159 -115t202 -45q163 0 270.5 92t107.5 244q0 144 -98 227t-242 83h-182v81h146q133 0 229 83t96 214q0 124 -78.5 205.5t-238.5 81.5q-193 0 -338 -123l-49 76q162 133 387 133
q198 0 303.5 -100.5t105.5 -265.5q0 -124 -64 -205.5t-159 -122.5v-4q125 -32 200 -127t75 -236q0 -189 -133.5 -305.5t-339.5 -116.5q-118 0 -234.5 48t-183.5 129z" />
    <glyph glyph-name="uni04DF" unicode="&#x4df;" horiz-adv-x="882" 
d="M530 1284v150h95v-150h-95zM250 1284v150h94v-150h-94zM70 123l55 65q118 -131 283 -131q111 0 194.5 59t83.5 169q0 100 -74 153.5t-211 53.5h-122v79h110q122 0 190 50t68 147t-65.5 147t-171.5 50q-148 0 -252 -97l-52 70q129 111 312 111q143 0 232 -70t89 -203
q0 -174 -166 -235v-4q94 -21 148.5 -85t54.5 -165q0 -99 -54 -171.5t-136 -106.5t-178 -34q-194 0 -338 148z" />
    <glyph glyph-name="uni04E0" unicode="&#x4e0;" horiz-adv-x="1056" 
d="M127 182q65 -55 157 -87t179 -32q173 0 280 93t107 241q0 132 -66 206t-219 95q-64 9 -303 9v69l438 490q19 22 41 44t35 33l12 11l-2 4q-52 -4 -124 -4h-547v80h794v-62l-471 -526l-55 -53v-5q146 0 201 -8q358 -50 358 -370q0 -188 -131.5 -309t-347.5 -121
q-208 0 -383 126z" />
    <glyph glyph-name="uni04E1" unicode="&#x4e1;" horiz-adv-x="968" 
d="M76 -227q65 -55 157 -87t179 -32q173 0 280 93t107 241q0 132 -66 206t-219 95q-57 8 -303 8v70l438 489q19 22 41 44t34 33l13 11l-2 4q-53 -4 -125 -4h-547v80h795v-61l-471 -527l-55 -53v-4q145 0 200 -8q359 -50 359 -371q0 -188 -131.5 -309t-347.5 -121
q-207 0 -383 127z" />
    <glyph glyph-name="uni04E2" unicode="&#x4e2;" horiz-adv-x="1536" 
d="M526 1612v82h490v-82h-490zM219 0v1434h88v-1125q0 -32 -2.5 -77t-4.5 -74l-3 -29h4q78 120 125 186l809 1119h82v-1434h-88v1124q0 32 2.5 77t4.5 75l3 29h-4q-72 -115 -119 -181l-815 -1124h-82z" />
    <glyph glyph-name="uni04E3" unicode="&#x4e3;" horiz-adv-x="1196" 
d="M356 1280v82h490v-82h-490zM178 0v1024h86v-729l-6 -166h4q72 103 117 166l559 729h80v-1024h-86v731l6 160h-4q-72 -97 -117 -160l-559 -731h-80z" />
    <glyph glyph-name="uni04E4" unicode="&#x4e4;" horiz-adv-x="1536" 
d="M860 1614v149h94v-149h-94zM580 1614v149h94v-149h-94zM219 0v1434h88v-1125q0 -32 -2.5 -77t-4.5 -74l-3 -29h4q78 120 125 186l809 1119h82v-1434h-88v1124q0 32 2.5 77t4.5 75l3 29h-4q-72 -115 -119 -181l-815 -1124h-82z" />
    <glyph glyph-name="uni04E5" unicode="&#x4e5;" horiz-adv-x="1196" 
d="M702 1284v150h95v-150h-95zM422 1284v150h94v-150h-94zM178 0v1024h86v-729l-6 -166h4q72 103 117 166l559 729h80v-1024h-86v731l6 160h-4q-72 -97 -117 -160l-559 -731h-80z" />
    <glyph glyph-name="uni04E6" unicode="&#x4e6;" horiz-adv-x="1691" 
d="M121 727q0 152 56 287.5t152 233t230.5 154t286.5 56.5t286.5 -56.5t230.5 -154t152 -233t56 -287.5q0 -208 -94.5 -380.5t-261 -272t-369.5 -99.5t-369.5 99.5t-261 272t-94.5 380.5zM213 727q0 -186 82 -339t227.5 -241t323.5 -88t323.5 88t227.5 241t82 339
q0 136 -48.5 256t-132 205.5t-201 135.5t-251.5 50t-251.5 -50t-201 -135.5t-132 -205.5t-48.5 -256zM936 1614v149h94v-149h-94zM655 1614v149h95v-149h-95z" />
    <glyph glyph-name="uni04E7" unicode="&#x4e7;" horiz-adv-x="1269" 
d="M104 518q0 147 71 269t193 192t267 70t266.5 -70t192.5 -192t71 -269q0 -150 -71 -275t-192.5 -196.5t-266.5 -71.5q-108 0 -206 42.5t-169.5 114.5t-113.5 173t-42 213zM195 518q0 -194 128 -326.5t312 -132.5t312 132.5t128 326.5q0 189 -128 318t-312 129t-312 -129
t-128 -318zM731 1284v150h94v-150h-94zM451 1284v150h94v-150h-94z" />
    <glyph glyph-name="uni04E8" unicode="&#x4e8;" horiz-adv-x="1691" 
d="M121 727q0 152 56 287.5t152 233t230.5 154t286.5 56.5t286.5 -56.5t230.5 -154t152 -233t56 -287.5q0 -208 -94.5 -380.5t-261 -272t-369.5 -99.5t-369.5 99.5t-261 272t-94.5 380.5zM846 59q171 0 312.5 82t225.5 225.5t93 319.5h-1264q9 -176 93 -319.5t226 -225.5
t314 -82zM846 1374q-172 0 -313.5 -79t-225.5 -217.5t-94 -309.5h1264q-9 171 -93 309.5t-225.5 217.5t-312.5 79z" />
    <glyph glyph-name="uni04E9" unicode="&#x4e9;" horiz-adv-x="1269" 
d="M104 518q0 147 71 269t193 192t267 70t266.5 -70t192.5 -192t71 -269q0 -150 -71 -275t-192.5 -196.5t-266.5 -71.5q-108 0 -206 42.5t-169.5 114.5t-113.5 173t-42 213zM635 59q173 0 299 119.5t139 298.5h-878q15 -180 140.5 -299t299.5 -119zM635 965
q-174 0 -300.5 -117t-139.5 -291h878q-9 115 -69.5 208.5t-157.5 146.5t-211 53z" />
    <glyph glyph-name="uni04EA" unicode="&#x4ea;" horiz-adv-x="1691" 
d="M121 727q0 152 56 287.5t152 233t230.5 154t286.5 56.5t286.5 -56.5t230.5 -154t152 -233t56 -287.5q0 -208 -94.5 -380.5t-261 -272t-369.5 -99.5t-369.5 99.5t-261 272t-94.5 380.5zM846 59q171 0 312.5 82t225.5 225.5t93 319.5h-1264q9 -176 93 -319.5t226 -225.5
t314 -82zM846 1374q-172 0 -313.5 -79t-225.5 -217.5t-94 -309.5h1264q-9 171 -93 309.5t-225.5 217.5t-312.5 79zM659 1614v149h95v-149h-95zM940 1614v149h94v-149h-94z" />
    <glyph glyph-name="uni04EB" unicode="&#x4eb;" horiz-adv-x="1269" 
d="M104 518q0 147 71 269t193 192t267 70t266.5 -70t192.5 -192t71 -269q0 -150 -71 -275t-192.5 -196.5t-266.5 -71.5q-108 0 -206 42.5t-169.5 114.5t-113.5 173t-42 213zM635 59q173 0 299 119.5t139 298.5h-878q15 -180 140.5 -299t299.5 -119zM635 965
q-174 0 -300.5 -117t-139.5 -291h878q-9 115 -69.5 208.5t-157.5 146.5t-211 53zM440 1284v150h95v-150h-95zM721 1284v150h94v-150h-94z" />
    <glyph glyph-name="uni04EC" unicode="&#x4ec;" horiz-adv-x="1468" 
d="M764 1614v149h94v-149h-94zM483 1614v149h95v-149h-95zM86 193l55 61q76 -85 212 -140t276 -55q167 0 306 81.5t222 223t94 314.5h-862v82h864q-6 131 -56 245t-132 195t-194.5 127.5t-239.5 46.5q-122 0 -242.5 -42t-212.5 -120l-53 66q91 86 228 133t278 47
q152 0 285.5 -56t228 -153t149 -232.5t54.5 -289.5q0 -206 -92 -378t-257 -273t-368 -101q-149 0 -295.5 56.5t-247.5 161.5z" />
    <glyph glyph-name="uni04ED" unicode="&#x4ed;" horiz-adv-x="1103" 
d="M608 1284v150h94v-150h-94zM328 1284v150h94v-150h-94zM82 135l45 72q66 -76 159.5 -112t186.5 -36q171 0 295 114t137 298h-563v80h563q-9 123 -70.5 218.5t-156 145.5t-205.5 50q-183 0 -317 -131l-54 69q61 69 162 107.5t207 38.5t201.5 -39t167.5 -108t114.5 -171
t42.5 -221q0 -159 -72 -282t-191.5 -188t-264.5 -65q-110 0 -212.5 41t-174.5 119z" />
    <glyph glyph-name="uni04EE" unicode="&#x4ee;" horiz-adv-x="1179" 
d="M346 1612v82h490v-82h-490zM184 57l47 70q100 -70 168 -70q31 0 56 11t43.5 28.5t36.5 48.5t31 61t30 77l-573 1151h98l434 -873q18 -36 38.5 -82t32.5 -74l11 -28h4q35 102 66 184l327 873h96l-481 -1241q-85 -218 -250 -218q-99 0 -215 82z" />
    <glyph glyph-name="uni04EF" unicode="&#x4ef;" horiz-adv-x="1058" 
d="M84 -299q6 -5 17.5 -13.5t45 -22t64.5 -13.5q122 0 201 184l73 170l-424 1018h93l338 -817l36 -96h4q15 47 35 96l338 817h92l-526 -1264q-36 -85 -102 -137.5t-158 -52.5q-44 0 -85.5 14t-61.5 28l-19 15zM285 1280v82h489v-82h-489z" />
    <glyph glyph-name="uni04F0" unicode="&#x4f0;" horiz-adv-x="1179" 
d="M684 1614v149h94v-149h-94zM403 1614v149h95v-149h-95zM184 57l47 70q100 -70 168 -70q31 0 56 11t43.5 28.5t36.5 48.5t31 61t30 77l-573 1151h98l434 -873q18 -36 38.5 -82t32.5 -74l11 -28h4q35 102 66 184l327 873h96l-481 -1241q-85 -218 -250 -218q-99 0 -215 82z
" />
    <glyph glyph-name="uni04F1" unicode="&#x4f1;" horiz-adv-x="1058" 
d="M84 -299q6 -5 17.5 -13.5t45 -22t64.5 -13.5q122 0 201 184l73 170l-424 1018h93l338 -817l36 -96h4q15 47 35 96l338 817h92l-526 -1264q-36 -85 -102 -137.5t-158 -52.5q-44 0 -85.5 14t-61.5 28l-19 15zM623 1284v150h94v-150h-94zM342 1284v150h94v-150h-94z" />
    <glyph glyph-name="uni04F2" unicode="&#x4f2;" horiz-adv-x="1179" 
d="M184 57l47 70q100 -70 168 -70q31 0 56 11t43.5 28.5t36.5 48.5t31 61t30 77l-573 1151h98l434 -873q18 -36 38.5 -82t32.5 -74l11 -28h4q35 102 66 184l327 873h96l-481 -1241q-85 -218 -250 -218q-99 0 -215 82zM655 1536l138 227h114l-162 -227h-90zM420 1536l127 227
h102l-133 -227h-96z" />
    <glyph glyph-name="uni04F3" unicode="&#x4f3;" horiz-adv-x="1058" 
d="M84 -299q6 -5 17.5 -13.5t45 -22t64.5 -13.5q122 0 201 184l73 170l-424 1018h93l338 -817l36 -96h4q15 47 35 96l338 817h92l-526 -1264q-36 -85 -102 -137.5t-158 -52.5q-44 0 -85.5 14t-61.5 28l-19 15zM582 1206l137 228h115l-162 -228h-90zM346 1206l127 228h102
l-133 -228h-96z" />
    <glyph glyph-name="uni04F4" unicode="&#x4f4;" horiz-adv-x="1228" 
d="M674 1614v149h94v-149h-94zM393 1614v149h94v-149h-94zM545 580q-422 0 -422 395v459h88v-445q0 -164 79 -244.5t255 -80.5q105 0 209 38t168 82v650h88v-1434h-88v625l4 67h-4q-72 -42 -175.5 -77t-201.5 -35z" />
    <glyph glyph-name="uni04F5" unicode="&#x4f5;" horiz-adv-x="991" 
d="M569 1284v150h95v-150h-95zM289 1284v150h94v-150h-94zM446 389q-342 0 -342 318v317h86v-317q0 -38 4.5 -67.5t20.5 -62.5t42.5 -54.5t74.5 -35.5t114 -14q84 0 159.5 29t121.5 63v459h86v-1024h-86v408l4 69h-4q-54 -37 -136 -62.5t-145 -25.5z" />
    <glyph glyph-name="uni04F6" unicode="&#x4f6;" horiz-adv-x="978" 
d="M219 0v1434h723v-82h-635v-1270h176v-369h-86v287h-178z" />
    <glyph glyph-name="uni04F7" unicode="&#x4f7;" horiz-adv-x="815" 
d="M178 0v1024h582v-78h-496v-866h154v-326h-86v246h-154z" />
    <glyph glyph-name="uni04F8" unicode="&#x4f8;" horiz-adv-x="1607" 
d="M899 1614v149h94v-149h-94zM618 1614v149h95v-149h-95zM1300 0v1434h89v-1434h-89zM219 0v1434h88v-615h348q88 0 162 -25t131 -74t89 -129t32 -183q0 -186 -112 -297t-287 -111h-451zM307 82h355q146 0 230.5 86t84.5 240q0 152 -88.5 240.5t-229.5 88.5h-352v-655z" />
    <glyph glyph-name="uni04F9" unicode="&#x4f9;" horiz-adv-x="1298" 
d="M739 1284v150h95v-150h-95zM459 1284v150h94v-150h-94zM1034 0v1024h86v-1024h-86zM178 0v1024h86v-410h236q42 0 80.5 -5.5t79 -18.5t73 -37t58.5 -57t40.5 -81.5t14.5 -109.5q0 -140 -89 -222.5t-261 -82.5h-318zM264 80h232q134 0 197 60t63 165q0 109 -63 169.5
t-193 60.5h-236v-455z" />
    <glyph glyph-name="uni0524" unicode="&#x524;" horiz-adv-x="1546" 
d="M219 0v1434h1065v-1352h176v-369h-86v287h-178v1352h-889v-1352h-88z" />
    <glyph glyph-name="uni0525" unicode="&#x525;" horiz-adv-x="1210" 
d="M178 0v1024h821v-944h154v-326h-86v246h-154v944h-649v-944h-86z" />
    <glyph glyph-name="uni1E9E" unicode="&#x1e9e;" horiz-adv-x="1343" 
d="M207 0v1075q0 149 104.5 254t253.5 105h613v-62l-355 -495l-55 -74v-4h74q164 0 279.5 -116.5t115.5 -281.5t-115.5 -283t-279.5 -118h-350v82h346q132 0 219.5 93.5t87.5 225.5t-87 224t-216 92h-191v65l320 451q28 40 50.5 70t30.5 39l9 10v4q-12 -4 -86 -4h-397
q-123 0 -203 -80t-80 -197v-1075h-88z" />
    <glyph glyph-name="thinspace" unicode="&#x2009;" horiz-adv-x="20" 
 />
    <glyph glyph-name="endash" unicode="&#x2013;" horiz-adv-x="1294" 
d="M160 539v82h975v-82h-975z" />
    <glyph glyph-name="emdash" unicode="&#x2014;" horiz-adv-x="1703" 
d="M160 539v82h1384v-82h-1384z" />
    <glyph glyph-name="quoteleft" unicode="&#x2018;" horiz-adv-x="466" 
d="M152 1141l98 309h80l-72 -309h-106z" />
    <glyph glyph-name="quoteright" unicode="&#x2019;" horiz-adv-x="458" 
d="M156 1141l71 309h107l-98 -309h-80z" />
    <glyph glyph-name="quotesinglbase" unicode="&#x201a;" horiz-adv-x="499" 
d="M137 -184l72 309h106l-98 -309h-80z" />
    <glyph glyph-name="quotedblleft" unicode="&#x201c;" horiz-adv-x="671" 
d="M356 1141l99 309h80l-72 -309h-107zM152 1141l98 309h80l-72 -309h-106z" />
    <glyph glyph-name="quotedblright" unicode="&#x201d;" horiz-adv-x="663" 
d="M360 1141l72 309h107l-99 -309h-80zM156 1141l71 309h107l-98 -309h-80z" />
    <glyph glyph-name="quotedblbase" unicode="&#x201e;" horiz-adv-x="704" 
d="M342 -184l72 309h106l-98 -309h-80zM137 -184l72 309h106l-98 -309h-80z" />
    <glyph glyph-name="dagger" unicode="&#x2020;" horiz-adv-x="776" 
d="M340 -102v1044h-234v82h234v410h86v-410h244v-82h-244v-1044h-86z" />
    <glyph glyph-name="daggerdbl" unicode="&#x2021;" horiz-adv-x="825" 
d="M131 381v82h234v479h-234v82h234v410h86v-410h243v-82h-243v-479h243v-82h-243v-483h-86v483h-234z" />
    <glyph glyph-name="bullet" unicode="&#x2022;" horiz-adv-x="909" 
d="M455 326q-113 0 -192 79t-79 191t79 191t192 79t191.5 -79t78.5 -191t-78.5 -191t-191.5 -79z" />
    <glyph glyph-name="ellipsis" unicode="&#x2026;" horiz-adv-x="1316" 
d="M1032 0v129h125v-129h-125zM596 0v129h125v-129h-125zM160 0v129h125v-129h-125z" />
    <glyph glyph-name="perthousand" unicode="&#x2030;" horiz-adv-x="2037" 
d="M389 924q-110 0 -188 78t-78 188t78 189t188 79t189 -79t79 -189t-79 -188t-189 -78zM119 0l1087 1434h107l-1088 -1434h-106zM389 1006q76 0 128 53.5t52 130.5t-52 131.5t-128 54.5t-127 -54.5t-51 -131.5t51 -130.5t127 -53.5zM1425 242q0 110 78.5 189t188.5 79
t189 -79t79 -189t-79 -188.5t-189 -78.5t-188.5 78.5t-78.5 188.5zM770 242q0 110 78 189t188 79t189.5 -79t79.5 -189t-79.5 -188.5t-189.5 -78.5t-188 78.5t-78 188.5zM1513 242q0 -77 51.5 -131t127.5 -54t128 54t52 131t-52 131.5t-128 54.5t-127.5 -54.5t-51.5 -131.5z
M858 242q0 -77 51 -131t127 -54t128.5 54t52.5 131t-52.5 131.5t-128.5 54.5t-127 -54.5t-51 -131.5z" />
    <glyph glyph-name="guilsinglleft" unicode="&#x2039;" horiz-adv-x="684" 
d="M449 158l-336 420l336 421h108l-336 -421l336 -420h-108z" />
    <glyph glyph-name="guilsinglright" unicode="&#x203a;" horiz-adv-x="684" 
d="M127 158l336 420l-336 421h109l335 -421l-335 -420h-109z" />
    <glyph glyph-name="fraction" unicode="&#x2044;" horiz-adv-x="307" 
d="M-143 0h-90l688 1434h88z" />
    <glyph glyph-name="zerosuperior" unicode="&#x2070;" 
d="M385 846q-303 0 -303 465t303 465t303 -465t-303 -465zM385 920q223 0 223 391t-223 391t-223 -391q0 -69 6.5 -125.5t22 -107t40.5 -84.5t64 -54t90 -20z" />
    <glyph glyph-name="foursuperior" unicode="&#x2074;" 
d="M492 866v248h-441v53l455 588h63v-567h140v-74h-140v-248h-77zM164 1188h328v301l6 133h-4q-35 -55 -72 -102l-258 -328v-4z" />
    <glyph glyph-name="fivesuperior" unicode="&#x2075;" 
d="M358 846q-79 0 -149 38.5t-115 104.5l66 43q29 -51 84 -81.5t114 -30.5q96 0 163 64t67 157q0 91 -67.5 156t-162.5 65q-91 0 -165 -55l-54 20l54 428h421v-74h-356l-20 -186l-15 -88h4q63 29 133 29q131 0 219.5 -86t88.5 -209q0 -124 -91 -209.5t-219 -85.5z" />
    <glyph glyph-name="sixsuperior" unicode="&#x2076;" 
d="M406 846q-145 0 -228.5 116t-83.5 291q0 70 13 140.5t42.5 140t72 123t108 86.5t145.5 33q90 0 170 -41l-39 -66q-25 13 -64.5 23t-68.5 10q-83 0 -148.5 -53.5t-101 -134t-47.5 -177.5h4q35 42 100 70.5t126 28.5q123 0 202.5 -79t79.5 -208q0 -144 -80.5 -223.5
t-201.5 -79.5zM406 920q95 0 148.5 65t53.5 164q0 97 -57 155t-148 58q-88 0 -156.5 -51t-68.5 -109q0 -61 26.5 -124.5t81 -110.5t120.5 -47z" />
    <glyph glyph-name="sevensuperior" unicode="&#x2077;" 
d="M156 866l356 682q16 32 35 65t30 51l11 17v5q-41 -5 -113 -5h-364v74h571v-53l-438 -836h-88z" />
    <glyph glyph-name="eightsuperior" unicode="&#x2078;" 
d="M385 846q-121 0 -211 73t-90 199q0 48 18.5 91.5t47 74.5t50.5 48.5t42 29.5q-113 74 -113 190q0 104 79.5 164t186.5 60q69 0 129 -24.5t100 -78.5t40 -127q0 -45 -16 -90t-40.5 -78t-39.5 -50.5t-27 -27.5q137 -81 137 -202q0 -104 -85 -178t-208 -74zM477 1333
q107 100 107 213q0 73 -57 114.5t-134 41.5q-76 0 -130 -39.5t-54 -110.5q0 -22 7 -42t16.5 -35t28 -30.5t33.5 -25.5t42 -23.5t44 -21t49 -21t48 -20.5zM385 920q81 0 147 51t66 125q0 37 -16.5 66.5t-50.5 52.5t-65 38.5t-83 38.5t-80 37q-139 -90 -139 -211
q0 -90 65.5 -144t155.5 -54z" />
    <glyph glyph-name="ninesuperior" unicode="&#x2079;" 
d="M125 887l39 65q21 -12 60.5 -22t72.5 -10q83 0 148.5 53.5t101 133.5t47.5 177h-4q-35 -42 -99.5 -70t-125.5 -28q-123 0 -203 79t-80 208q0 144 81 223.5t202 79.5q97 0 168.5 -55.5t107 -147t35.5 -205.5q0 -70 -13 -140t-42 -139.5t-72 -123t-108.5 -86.5t-145.5 -33
q-40 0 -88.5 11.5t-81.5 29.5zM367 1260q88 0 156.5 51t68.5 108q0 61 -26.5 125t-80.5 111t-120 47q-95 0 -149 -65t-54 -164q0 -97 57 -155t148 -58z" />
    <glyph glyph-name="zeroinferior" unicode="&#x2080;" 
d="M385 -342q-303 0 -303 465t303 465t303 -465t-303 -465zM385 -268q223 0 223 391t-223 391t-223 -391q0 -69 6.5 -125.5t22 -107t40.5 -84.5t64 -54t90 -20z" />
    <glyph glyph-name="oneinferior" unicode="&#x2081;" 
d="M170 -322v74h197v666l2 45h-2q-9 -16 -48 -55l-90 -89l-53 56l191 192h77v-815h191v-74h-465z" />
    <glyph glyph-name="twoinferior" unicode="&#x2082;" 
d="M111 -322q-5 45 -5 56q0 67 25 124t65 96.5t88 75t96.5 68t88.5 65.5t65 77.5t25 95.5q0 74 -51.5 126t-134.5 52q-109 0 -193 -102l-49 53q37 52 104 87.5t138 35.5q126 0 196 -73t70 -179q0 -62 -24.5 -114.5t-64 -89.5t-87 -70t-96 -65t-88.5 -65.5t-65.5 -79.5
t-27.5 -100h469v-74h-544z" />
    <glyph glyph-name="threeinferior" unicode="&#x2083;" 
d="M367 -344q-81 0 -158.5 34t-124.5 99l57 53q31 -46 92.5 -79t135.5 -33q79 0 145 60t66 147q0 89 -67 142.5t-153 53.5h-65l-23 49l222 260q10 12 23 25t21 20l7 7v4q-37 -6 -78 -6h-336v73h522v-53l-262 -307q46 -3 89.5 -18t85.5 -44.5t67.5 -82.5t25.5 -123
q0 -117 -86 -199t-206 -82z" />
    <glyph glyph-name="fourinferior" unicode="&#x2084;" 
d="M492 -322v248h-441v54l455 587h63v-567h140v-74h-140v-248h-77zM164 0h328v301l6 133h-4q-35 -55 -72 -102l-258 -328v-4z" />
    <glyph glyph-name="fiveinferior" unicode="&#x2085;" 
d="M360 -342q-79 0 -149 38.5t-115 104.5l66 43q29 -51 84 -81.5t114 -30.5q96 0 163 64t67 157q0 91 -67.5 156t-162.5 65q-91 0 -165 -55l-54 20l54 428h421v-73h-356l-20 -187l-15 -88h4q63 29 133 29q131 0 219.5 -86t88.5 -209q0 -124 -91 -209.5t-219 -85.5z" />
    <glyph glyph-name="sixinferior" unicode="&#x2086;" 
d="M406 -342q-145 0 -228.5 116.5t-83.5 291.5q0 70 13 140t42 139.5t72 123t108.5 86.5t145.5 33q90 0 170 -41l-39 -66q-25 13 -64.5 23t-68.5 10q-83 0 -148.5 -53.5t-101 -133.5t-47.5 -177h4q35 42 100 70t126 28q123 0 202.5 -79t79.5 -208q0 -144 -80.5 -223.5
t-201.5 -79.5zM406 -268q95 0 148.5 65t53.5 164q0 97 -57 155t-148 58q-88 0 -156.5 -51t-68.5 -109q0 -61 26.5 -124.5t81 -110.5t120.5 -47z" />
    <glyph glyph-name="seveninferior" unicode="&#x2087;" 
d="M156 -324l356 682q16 32 35 65.5t30 50.5l11 18v4q-41 -4 -113 -4h-364v73h571v-53l-438 -836h-88z" />
    <glyph glyph-name="eightinferior" unicode="&#x2088;" 
d="M385 -340q-121 0 -211 73t-90 199q0 48 18.5 91.5t47 74.5t50.5 48.5t42 29.5q-113 74 -113 191q0 104 79 163.5t187 59.5q69 0 129 -24.5t100 -78.5t40 -127q0 -45 -16 -90t-40.5 -78t-39.5 -50t-27 -27q137 -81 137 -203q0 -104 -85 -178t-208 -74zM477 147
q107 100 107 213q0 73 -57 114.5t-134 41.5q-76 0 -130 -39t-54 -110q0 -25 7 -46.5t24.5 -40.5t32 -32t46 -29t48 -24t56 -24.5t54.5 -23.5zM385 -266q81 0 147 51t66 125q0 37 -16.5 66.5t-50.5 52.5t-65 38.5t-83 38.5t-80 37q-139 -90 -139 -211q0 -90 65.5 -144
t155.5 -54z" />
    <glyph glyph-name="nineinferior" unicode="&#x2089;" 
d="M125 -301l39 65q21 -12 60.5 -22t72.5 -10q83 0 148.5 53.5t101 133.5t47.5 177h-4q-35 -42 -99.5 -70t-125.5 -28q-123 0 -203 79t-80 208q0 144 81 223.5t202 79.5q97 0 168.5 -55.5t107 -147t35.5 -205.5q0 -70 -13 -140t-42 -139.5t-72 -123t-108.5 -86.5t-145.5 -33
q-40 0 -88.5 11.5t-81.5 29.5zM367 72q88 0 156.5 51t68.5 108q0 61 -26.5 125t-80.5 111t-120 47q-95 0 -149 -65t-54 -164q0 -97 57 -155t148 -58z" />
    <glyph glyph-name="Euro" unicode="&#x20ac;" horiz-adv-x="1146" 
d="M55 559v82h111q-5 28 -4.5 86.5t6.5 95.5h-113v82h127q58 245 244.5 399t437.5 154q102 0 183 -22l-21 -86q-74 22 -162 22q-217 0 -375 -128.5t-213 -338.5h672l-16 -82h-672q-15 -81 -4 -182h643l-14 -82h-617q46 -222 208.5 -360t387.5 -138q98 0 180 27l25 -84
q-89 -29 -205 -29q-259 0 -448.5 163.5t-239.5 420.5h-121z" />
    <glyph glyph-name="numero" unicode="&#x2116;" horiz-adv-x="2078" 
d="M205 0v1434h82l817 -1125q21 -29 50 -74t48 -75l19 -31h4q-11 108 -11 180v1125h89v-1434h-82l-818 1124q-21 29 -50 74.5t-47 75.5l-19 31h-4q10 -109 10 -181v-1124h-88zM1464 983q0 105 73.5 177.5t176.5 72.5q105 0 178.5 -72.5t73.5 -177.5q0 -108 -73.5 -182
t-178.5 -74q-104 0 -177 74t-73 182zM1546 983q0 -75 49.5 -126.5t118.5 -51.5q71 0 120.5 51.5t49.5 126.5q0 73 -49.5 121.5t-120.5 48.5q-70 0 -119 -48.5t-49 -121.5zM1483 498v75h463v-75h-463z" />
    <glyph glyph-name="trademark" unicode="&#x2122;" horiz-adv-x="1986" 
d="M956 541l72 893h72l258 -553q8 -18 15 -38.5t10 -32.5l3 -11h5q10 41 28 82l258 553h72l72 -893h-78l-57 671l2 58h-5l-260 -561h-69l-260 561h-4l2 -58l-58 -671h-78zM463 541v815h-328v78h737v-78h-329v-815h-80z" />
    <glyph glyph-name="minus" unicode="&#x2212;" horiz-adv-x="1146" 
d="M66 539v82h1015v-82h-1015z" />
    <glyph glyph-name="infinity" unicode="&#x221e;" horiz-adv-x="942" 
d="M471 377q-139 0 -238.5 99.5t-99.5 238.5t99 237.5t239 98.5q139 0 237.5 -98.5t98.5 -237.5q0 -140 -98.5 -239t-237.5 -99z" />
    <glyph glyph-name="approxequal" unicode="&#x2248;" horiz-adv-x="1146" 
d="M133 657l-51 62q53 55 130 95t159 40q65 0 124 -22.5t96.5 -49t87 -49t97.5 -22.5q63 0 126.5 33t111.5 81l51 -61q-53 -55 -130 -95t-159 -40q-65 0 -124 22.5t-96.5 49t-87 49t-97.5 22.5q-63 0 -126.5 -33.5t-111.5 -81.5zM133 330l-51 61q53 55 130 95t159 40
q65 0 124 -22.5t96.5 -49t87 -49t97.5 -22.5q63 0 126.5 33.5t111.5 81.5l51 -62q-53 -55 -130 -95t-159 -40q-65 0 -124 22.5t-96.5 49t-87 49t-97.5 22.5q-63 0 -126.5 -33t-111.5 -81z" />
    <glyph glyph-name="notequal" unicode="&#x2260;" horiz-adv-x="1146" 
d="M223 188l139 187h-258v82h320l186 245h-506v82h568l184 244l68 -51l-146 -193h260v-82h-321l-187 -245h508v-82h-569l-178 -238z" />
    <glyph glyph-name="lessequal" unicode="&#x2264;" horiz-adv-x="1146" 
d="M111 543v73l899 404v-98l-772 -340v-4l772 -340v-99zM111 -231h899v-82h-899v82z" />
    <glyph glyph-name="greaterequal" unicode="&#x2265;" horiz-adv-x="1146" 
d="M137 139v99l772 340v4l-772 340v98l899 -404v-73zM135 -231h899v-82h-899v82z" />
    <glyph glyph-name="commaaccent" unicode="&#xf6c3;" horiz-adv-x="686" 
d="M291 -135h98q12 -52 12 -96q0 -77 -45 -179h-80q37 95 37 160q0 56 -22 115z" />
    <glyph glyph-name="cyrbreve" unicode="&#xf6d4;" horiz-adv-x="565" 
d="M283 1503q-98 0 -170 60.5t-72 162.5v37h86v-30q0 -69 45.5 -108.5t110.5 -39.5q64 0 110.5 40t46.5 110v28h84v-37q0 -102 -71.5 -162.5t-169.5 -60.5z" />
    <glyph glyph-name="apple" unicode="&#xf8ff;" horiz-adv-x="2314" 
d="M344 -10v311l-258 148v569l258 145v310l543 290l274 -145l271 145l542 -290v-310l254 -145v-569l-254 -148v-311l-542 -289l-271 145l-274 -145zM426 61l487 -258l248 136l242 -136l487 258v285l234 131v510l-234 135v279l-487 258l-242 -131l-248 131l-487 -258v-279
l-233 -135v-510l233 -131v-285zM496 131v248l-203 123v461l203 118v252l440 234l225 -121l219 121l439 -234v-252l204 -118v-461l-204 -123v-248l-439 -233l-219 118l-225 -118zM915 186h89v467h466v82h-466v393h407q34 0 46.5 -13t12.5 -46v-86h86v111q0 61 -26.5 88.5
t-91.5 27.5h-656v-82h133v-942z" />
    <glyph glyph-name="zero.tnum" horiz-adv-x="1146" 
d="M573 -25q-107 0 -190 37.5t-138 103t-90 161t-50 203.5t-15 237t15 236.5t50 202.5t90 160.5t138 103.5t190 38t190.5 -38t138 -103.5t90 -160.5t50.5 -202.5t15 -236.5q0 -163 -25 -292.5t-79.5 -233t-150.5 -160t-229 -56.5zM573 61q89 0 157.5 33t112.5 90.5t71.5 142
t39 179.5t11.5 211t-11.5 210.5t-39 179t-71.5 142t-112.5 90.5t-157.5 33t-157.5 -33t-112 -90.5t-71.5 -142t-39 -179t-11 -210.5q0 -147 19 -260.5t62 -205.5t121 -141t189 -49z" />
    <glyph glyph-name="one.tnum" horiz-adv-x="1146" 
d="M229 0v82h326v1167l2 72h-4q-15 -27 -76 -88l-170 -170l-61 59l309 312h88v-1352h318v-82h-732z" />
    <glyph glyph-name="two.tnum" horiz-adv-x="1146" 
d="M135 0q-6 40 -6 76q0 80 26 150.5t70.5 125.5t101.5 105t120.5 94t127 86.5t120.5 89t101.5 95.5t70.5 111.5t26 131.5q0 132 -91 219.5t-243 87.5q-105 0 -197.5 -56t-150.5 -149l-66 45q62 109 174.5 177.5t241.5 68.5q103 0 185 -32.5t133.5 -87.5t78.5 -125t27 -148
t-26 -148t-70 -124t-101.5 -104t-120.5 -93.5t-126 -86.5t-120.5 -89t-101.5 -95.5t-70 -111.5t-26 -131h785v-82h-873z" />
    <glyph glyph-name="three.tnum" horiz-adv-x="1146" 
d="M113 174l65 66q67 -75 170.5 -127t214.5 -52q142 0 250.5 100t108.5 253q0 107 -56 186.5t-141.5 117.5t-185.5 38h-99l-24 61l401 469q14 16 30 32.5t25 25.5l9 8v4q-39 -4 -111 -4h-588v82h822v-62l-463 -534q57 0 116 -11t124.5 -41.5t116 -76t83.5 -122t33 -173.5
q0 -183 -134 -311t-321 -128q-123 0 -240.5 53.5t-205.5 145.5z" />
    <glyph glyph-name="four.tnum" horiz-adv-x="1146" 
d="M49 410v61l744 963h81v-942h213v-82h-213v-410h-88v410h-737zM172 492h614v671l7 129h-5q-34 -51 -71 -98l-545 -698v-4z" />
    <glyph glyph-name="five.tnum" horiz-adv-x="1146" 
d="M129 182l72 56q48 -74 130 -125.5t201 -51.5q168 0 283 107.5t115 267.5q0 162 -115 270.5t-283 108.5q-71 0 -147 -23.5t-131 -62.5l-66 23l82 682h666v-82h-588l-51 -428l-14 -88h4q39 26 107.5 45.5t137.5 19.5q205 0 347.5 -135.5t142.5 -329.5q0 -127 -66 -233
t-178.5 -167t-245.5 -61q-122 0 -229.5 54.5t-173.5 152.5z" />
    <glyph glyph-name="six.tnum" horiz-adv-x="1146" 
d="M111 643q0 91 15.5 183t46 184.5t81 172.5t116.5 142t157.5 97.5t197.5 35.5q135 0 252 -57l-43 -80q-88 51 -215 51q-95 0 -177 -38.5t-140.5 -103t-102 -150t-67 -178t-29.5 -189.5h4q60 90 169.5 143t235.5 53q193 0 317 -125.5t124 -337.5q0 -217 -128 -344
t-313 -127q-154 0 -269.5 92t-173.5 242.5t-58 333.5zM623 61q151 0 244.5 110t93.5 280q0 172 -97.5 272t-255.5 100q-100 0 -190.5 -39t-148.5 -110t-58 -156q0 -45 15 -102t49 -120t80.5 -115t116.5 -86t151 -34z" />
    <glyph glyph-name="seven.tnum" horiz-adv-x="1146" 
d="M274 0l598 1219q16 32 35 65t30 50l11 18v4q-40 -4 -112 -4h-697v82h908v-62l-680 -1372h-93z" />
    <glyph glyph-name="eight.tnum" horiz-adv-x="1146" 
d="M98 399q0 70 22 135t51.5 108.5t69 82.5t64 57t47.5 31q-184 115 -184 291q0 71 27 134t78.5 112.5t133.5 78.5t183 29q196 0 311 -100t115 -260q0 -71 -23 -142t-59.5 -125.5t-62.5 -86t-50 -54.5q101 -57 157 -129.5t56 -177.5q0 -169 -134 -288.5t-327 -119.5
q-89 0 -173.5 29t-152 82t-108.5 134.5t-41 178.5zM739 729q185 176 185 363q0 130 -92.5 205t-241.5 75q-151 0 -240.5 -75.5t-89.5 -188.5q0 -51 22 -95.5t52.5 -74.5t85.5 -62t97 -50.5t112.5 -48.5t109.5 -48zM190 406q0 -101 56 -181.5t142 -122t181 -41.5
q145 0 259 92t114 224q0 54 -23 99.5t-57 76.5t-90.5 62.5t-104 51.5t-117.5 50t-114 51q-22 -12 -47 -28.5t-62.5 -50.5t-66 -72t-49.5 -94.5t-21 -116.5z" />
    <glyph glyph-name="nine.tnum" horiz-adv-x="1146" 
d="M168 33l43 80q36 -21 94 -36.5t117 -15.5q97 0 180 38.5t142 103t102.5 150.5t66.5 178.5t29 189.5h-4q-60 -91 -170 -144t-236 -53q-192 0 -316 125.5t-124 331.5q0 113 35.5 205t96 150.5t140 90t168.5 31.5q154 0 269.5 -91.5t174 -242.5t58.5 -336q0 -90 -15.5 -182
t-46 -184t-81.5 -172t-116.5 -142t-157.5 -97.5t-199 -35.5q-134 0 -250 58zM537 610q159 0 278 91.5t119 193.5q0 76 -28.5 158.5t-78.5 154t-127.5 118t-164.5 46.5q-163 0 -257 -108.5t-94 -282.5q0 -170 98 -270.5t255 -100.5z" />
    <glyph glyph-name="hyphen.case" horiz-adv-x="884" 
d="M160 674v82h565v-82h-565z" />
    <glyph glyph-name="parenleft.case" horiz-adv-x="540" 
d="M352 -133q-106 186 -165.5 415.5t-59.5 465.5q0 424 225 798h90q-231 -390 -231 -801q0 -475 231 -878h-90z" />
    <glyph glyph-name="parenright.case" horiz-adv-x="540" 
d="M98 -133q232 405 232 878q0 410 -232 801h90q226 -376 226 -798q0 -235 -60 -465t-166 -416h-90z" />
    <glyph glyph-name="bracketleft.case" horiz-adv-x="542" 
d="M201 -133v1679h221v-82h-133v-1515h133v-82h-221z" />
    <glyph glyph-name="bracketright.case" horiz-adv-x="542" 
d="M121 -51h133v1515h-133v82h221v-1679h-221v82z" />
    <glyph glyph-name="braceleft.case" horiz-adv-x="667" 
d="M270 242v192q0 94 -44.5 159t-129.5 85v82q84 19 129 83.5t45 160.5v165q0 99 23.5 172.5t55 110.5t74.5 59.5t71 27.5t55 5h18v-80h-12q-19 0 -39 -4t-50 -21.5t-52.5 -46.5t-39 -86.5t-16.5 -134.5v-190q0 -86 -41.5 -156t-119.5 -104v-4q74 -30 117.5 -97t43.5 -163
v-217q0 -77 16.5 -134.5t39 -86.5t52.5 -46.5t50 -21.5t39 -4h12v-80q-6 -2 -18 -2q-27 0 -55 5t-71 27.5t-74.5 60t-55 111.5t-23.5 173z" />
    <glyph glyph-name="braceright.case" horiz-adv-x="667" 
d="M100 -53h13q19 0 39 4t50 21.5t52 46.5t38.5 86.5t16.5 134.5v217q0 93 42.5 161t119.5 99v4q-71 29 -116.5 98.5t-45.5 161.5v190q0 77 -16.5 134.5t-38.5 86.5t-52 46.5t-50 21.5t-39 4h-13v80h19q27 0 55 -5t70.5 -27.5t74 -59.5t55 -110.5t23.5 -172.5v-165
q0 -95 45 -160.5t129 -83.5v-82q-84 -17 -129 -83.5t-45 -160.5v-192q0 -99 -23.5 -173t-55 -111.5t-74 -60t-70.5 -27.5t-55 -5l-19 2v80z" />
    <glyph glyph-name="at.case" horiz-adv-x="1560" 
d="M129 717q0 152 57 290.5t152 238.5t226 159t274 59q127 0 222 -30.5t148.5 -83t79 -114.5t25.5 -134v-705h143v-82h-543q-164 0 -279.5 116.5t-115.5 281.5t115.5 283t279.5 118h308q-2 54 -23 100t-63 85t-115 61t-170 22q-130 0 -247 -52.5t-200.5 -141.5t-132.5 -212
t-49 -259q0 -183 83 -335t227.5 -239.5t318.5 -87.5v-86q-196 0 -362 99.5t-262.5 271.5t-96.5 377zM610 713q0 -131 92 -223.5t222 -92.5h297v635h-293q-133 0 -225.5 -94t-92.5 -225z" />
    <glyph glyph-name="guillemotleft.case" horiz-adv-x="1013" 
d="M776 281l-336 419l336 422h109l-336 -422l336 -419h-109zM449 281l-336 419l336 422h108l-336 -422l336 -419h-108z" />
    <glyph glyph-name="guillemotright.case" horiz-adv-x="1013" 
d="M457 281l336 419l-336 422h108l336 -422l-336 -419h-108zM129 281l336 419l-336 422h109l335 -422l-335 -419h-109z" />
    <glyph glyph-name="guilsinglleft.case" horiz-adv-x="686" 
d="M449 281l-336 419l336 422h108l-336 -422l336 -419h-108z" />
    <glyph glyph-name="guilsinglright.case" horiz-adv-x="686" 
d="M129 281l336 419l-336 422h109l335 -422l-335 -419h-109z" />
    <glyph glyph-name="endash.case" horiz-adv-x="1294" 
d="M160 662v81h975v-81h-975z" />
    <glyph glyph-name="emdash.case" horiz-adv-x="1703" 
d="M160 662v81h1384v-81h-1384z" />
    <glyph glyph-name="periodcentered.case" horiz-adv-x="436" 
d="M160 649v121h116v-121h-116z" />
    <glyph glyph-name="questiondown.case" horiz-adv-x="890" 
d="M559 1075v-90q0 -68 -20 -126t-52.5 -100t-71.5 -80.5t-78 -75t-71.5 -75t-52.5 -90.5t-20 -112q0 -112 84 -188.5t215 -76.5q67 0 136.5 23t123.5 63l47 -69q-55 -45 -139 -74t-166 -29q-175 0 -284.5 100t-109.5 253q0 69 20.5 127.5t53 100.5t72 80.5t79.5 74.5
t72.5 74.5t53 89.5t20.5 110v90h88zM575 1434v-125h-120v125h120z" />
    <glyph glyph-name="exclamdown.case" horiz-adv-x="507" 
d="M299 1075v-1075h-88v1075h88zM313 1434v-125h-120v125h120z" />
    <glyph glyph-name="bullet.case" horiz-adv-x="905" 
d="M453 449q-113 0 -192 79t-79 191t79 191t192 79t191.5 -78.5t78.5 -191.5t-78.5 -191.5t-191.5 -78.5z" />
    <glyph glyph-name="zero.p_osf" horiz-adv-x="1196" 
d="M127 549q0 88 18.5 172t57.5 158.5t93.5 130t132.5 88t169 32.5t169 -32.5t132.5 -88t93.5 -130t57.5 -158.5t18.5 -172q0 -87 -18.5 -170t-57 -156.5t-93.5 -128.5t-132.5 -87t-169.5 -32t-169.5 32t-132.5 87t-93.5 128.5t-57 156.5t-18.5 170zM217 553
q0 -94 24.5 -181t70.5 -157.5t120 -113t166 -42.5t166 42.5t120 113t70.5 157.5t24.5 181t-24.5 181t-70.5 157.5t-120 113t-166 42.5t-166 -42.5t-120 -113t-70.5 -157.5t-24.5 -181z" />
    <glyph glyph-name="one.p_osf" horiz-adv-x="931" 
d="M154 0v80h325v838l2 98h-4q-33 -24 -80 -53l-239 -146l-41 64l362 225h86v-1026h287v-80h-698z" />
    <glyph glyph-name="two.p_osf" horiz-adv-x="1085" 
d="M139 0v66q193 130 316 224.5t210 181.5t123.5 161.5t36.5 152.5q0 128 -87 194.5t-222 66.5q-172 0 -334 -162l-55 61q61 74 170 129t227 55q100 0 178.5 -31t123 -81t67 -106.5t22.5 -114.5q0 -175 -143.5 -337t-480.5 -380v-4q38 4 110 4h568v-80h-830z" />
    <glyph glyph-name="three.p_osf" horiz-adv-x="1075" 
d="M94 -76l66 60q137 -162 348 -162q91 0 171 38.5t132.5 115t52.5 174.5q0 77 -32 138t-87 98.5t-122.5 57t-143.5 19.5h-96l-25 65l394 437q14 16 29.5 31t24.5 22l9 8v4q-38 -4 -110 -4h-523v80h762v-57l-463 -502q47 0 95 -7t103.5 -23t103 -46t87 -72t62 -106
t22.5 -143q0 -122 -62.5 -217.5t-164 -145t-223.5 -49.5q-116 0 -224.5 48.5t-185.5 137.5z" />
    <glyph glyph-name="four.p_osf" horiz-adv-x="1185" 
d="M78 84v59l713 963h77v-942h232v-80h-232v-322h-86v322h-704zM197 164h585v674l6 129h-4q-34 -64 -71 -113z" />
    <glyph glyph-name="five.p_osf" horiz-adv-x="1087" 
d="M109 -49l71 49q52 -73 138.5 -114.5t181.5 -41.5q102 0 189.5 39t144.5 120t57 190q0 107 -56.5 185.5t-141.5 115t-183 36.5q-44 0 -89 -8t-77.5 -19t-58.5 -22.5t-39 -19.5l-13 -8l-63 20l82 633h643v-80h-567l-49 -387l-15 -82h4q12 6 33.5 15.5t87.5 25.5t131 16
q89 0 170 -26.5t147 -76.5t105 -132t39 -184q0 -197 -137.5 -316t-341.5 -119q-116 0 -222.5 50t-170.5 141z" />
    <glyph glyph-name="six.p_osf" horiz-adv-x="1198" 
d="M137 586q0 105 21 210.5t69 209.5t117.5 183.5t175 129t232.5 49.5q134 0 249 -53l-43 -78q-89 47 -210 47q-97 0 -180.5 -36.5t-142.5 -97.5t-103 -143t-67.5 -171.5t-29.5 -184.5h4q60 95 169.5 146t238.5 51q192 0 316 -116t124 -308q0 -141 -61.5 -245t-159.5 -154
t-219 -50q-115 0 -210.5 48.5t-158 132t-97 194t-34.5 236.5zM236 496q0 -56 17.5 -116t53 -117t82.5 -103t111.5 -73.5t134.5 -27.5q164 0 258 101.5t94 263.5q0 156 -97.5 248t-256.5 92q-106 0 -199.5 -42t-145.5 -103.5t-52 -122.5z" />
    <glyph glyph-name="seven.p_osf" horiz-adv-x="1024" 
d="M225 -238l574 1141q15 30 32 61t27 46l10 16v4q-40 -4 -112 -4h-666v80h879v-57l-650 -1287h-94z" />
    <glyph glyph-name="eight.p_osf" horiz-adv-x="1187" 
d="M131 383q0 62 22 120.5t52 98.5t69.5 76t65 53t47.5 29q-190 108 -190 280q0 136 109 233t300 97q192 0 305 -94t113 -246q0 -69 -24.5 -136.5t-62 -117.5t-63.5 -77.5t-47 -45.5q104 -56 162 -125t58 -170q0 -104 -60 -192t-164.5 -139.5t-228.5 -51.5q-89 0 -171 27
t-147.5 77.5t-105 129t-39.5 174.5zM748 692q18 15 33.5 29t46 49.5t51.5 70.5t38 86.5t17 102.5q0 118 -92 187t-236 69t-231.5 -70.5t-87.5 -175.5q0 -36 11.5 -68t30 -56.5t49 -48t59.5 -40.5t72 -36.5t76.5 -33t82 -32.5t80.5 -33zM221 383q0 -98 54.5 -173.5
t138.5 -113t180 -37.5q141 0 251.5 85t110.5 212q0 48 -22 90t-54 70.5t-87 58.5t-99 48.5t-114 46.5t-111 47q-19 -9 -42 -23t-62 -45.5t-69 -67t-52.5 -88.5t-22.5 -110z" />
    <glyph glyph-name="nine.p_osf" horiz-adv-x="1163" 
d="M225 -131q37 -21 98 -34t113 -13q120 0 218.5 55t161 146.5t98.5 201.5t44 230h-4q-60 -95 -169 -146t-238 -51q-192 0 -316.5 116t-124.5 308q0 107 35.5 193t96.5 141t140.5 84.5t168.5 29.5q115 0 210.5 -48.5t158 -131.5t97 -193.5t34.5 -236.5q0 -105 -21 -210.5
t-69 -209.5t-117.5 -183.5t-175 -129t-232.5 -49.5q-138 0 -250 53zM551 342q106 0 199.5 42t145.5 103.5t52 122.5q0 56 -17.5 116t-53 117t-82.5 103t-111.5 73.5t-134.5 27.5q-164 0 -258 -101.5t-94 -263.5q0 -156 97.5 -248t256.5 -92z" />
    <glyph glyph-name="zero.t_osf" horiz-adv-x="1146" 
d="M102 549q0 88 18.5 172t57.5 158.5t93.5 130t132.5 88t169 32.5t169 -32.5t132.5 -88t93.5 -130t57.5 -158.5t18.5 -172q0 -87 -18.5 -170t-57 -156.5t-93.5 -128.5t-132.5 -87t-169.5 -32t-169.5 32t-132.5 87t-93.5 128.5t-57 156.5t-18.5 170zM193 553q0 -94 24 -181
t70 -157.5t120 -113t166 -42.5t166 42.5t120 113t70.5 157.5t24.5 181t-24.5 181t-70.5 157.5t-120 113t-166 42.5t-166 -42.5t-120 -113t-70 -157.5t-24 -181z" />
    <glyph glyph-name="one.t_osf" horiz-adv-x="1146" 
d="M260 0v80h326v838l2 98h-4q-33 -24 -80 -53l-240 -146l-41 64l363 225h86v-1026h286v-80h-698z" />
    <glyph glyph-name="two.t_osf" horiz-adv-x="1146" 
d="M170 0v66q193 130 316 224.5t210 181.5t123.5 161.5t36.5 152.5q0 128 -87 194.5t-222 66.5q-172 0 -334 -162l-55 61q61 74 170 129t227 55q100 0 178.5 -31t123 -81t67 -106.5t22.5 -114.5q0 -175 -143.5 -337t-480.5 -380v-4q38 4 110 4h567v-80h-829z" />
    <glyph glyph-name="three.t_osf" horiz-adv-x="1146" 
d="M129 -76l66 60q137 -162 348 -162q91 0 171 38.5t132.5 115t52.5 174.5q0 77 -32 138t-87 98.5t-122.5 57t-143.5 19.5h-96l-25 65l393 437q14 16 30 31t25 22l9 8v4q-39 -4 -111 -4h-522v80h762v-57l-463 -502q47 0 95 -7t103.5 -23t103 -46t87 -72t62 -106t22.5 -143
q0 -122 -62.5 -217.5t-164 -145t-223.5 -49.5q-116 0 -224.5 48.5t-185.5 137.5z" />
    <glyph glyph-name="four.t_osf" horiz-adv-x="1146" 
d="M57 84v59l713 963h78v-942h231v-80h-231v-322h-86v322h-705zM176 164h586v674l6 129h-4q-35 -64 -72 -113z" />
    <glyph glyph-name="five.t_osf" horiz-adv-x="1146" 
d="M137 -49l72 49q52 -73 138 -114.5t181 -41.5q102 0 190 39t145 120t57 190q0 107 -56.5 185.5t-141.5 115t-183 36.5q-44 0 -89 -8t-77.5 -19t-58.5 -22.5t-39 -19.5l-13 -8l-63 20l82 633h643v-80h-568l-49 -387l-14 -82h4q12 6 33.5 15.5t87.5 25.5t131 16
q89 0 170 -26.5t147 -76.5t105 -132t39 -184q0 -197 -138 -316t-342 -119q-116 0 -222.5 50t-170.5 141z" />
    <glyph glyph-name="six.t_osf" horiz-adv-x="1146" 
d="M111 586q0 105 21 210.5t69 209.5t117 183.5t174.5 129t232.5 49.5q135 0 250 -53l-43 -78q-39 21 -97.5 34t-113.5 13q-120 0 -218.5 -55t-161 -146.5t-98.5 -201.5t-44 -230h4q60 95 169 146t238 51q192 0 316.5 -116t124.5 -308q0 -107 -35.5 -193.5t-96.5 -141.5
t-140.5 -84.5t-168.5 -29.5q-153 0 -268 83.5t-173 221t-58 306.5zM209 496q0 -56 17.5 -116t53 -117t82.5 -103t111.5 -73.5t134.5 -27.5q164 0 258.5 101.5t94.5 263.5q0 156 -98 248t-257 92q-106 0 -199.5 -42t-145.5 -103.5t-52 -122.5z" />
    <glyph glyph-name="seven.t_osf" horiz-adv-x="1146" 
d="M287 -238l573 1141q15 30 32.5 61t27.5 46l10 16v4q-41 -4 -113 -4h-665v80h878v-57l-649 -1287h-94z" />
    </font>
</defs>
</svg>
