<?xml version="1.0" standalone="no"?>
<!DOCTYPE svg PUBLIC "-//W3C//DTD SVG 1.1//EN" "http://www.w3.org/Graphics/SVG/1.1/DTD/svg11.dtd" >
<svg xmlns="http://www.w3.org/2000/svg" xmlns:xlink="http://www.w3.org/1999/xlink" version="1.1">
<metadata>
Created by FontForge 20170731 at Sun Jan 26 18:59:58 2014
 By Aleksey,,,
Copyright (c) 2011 by Jos Buivenga. All rights reserved.
</metadata>
<defs>
<font id="MuseoSansCond-700" horiz-adv-x="1001" >
  <font-face 
    font-family="MuseoSansCond-700"
    font-weight="400"
    font-stretch="condensed"
    units-per-em="2048"
    panose-1="2 0 0 0 0 0 0 0 0 0"
    ascent="1583"
    descent="-465"
    x-height="1044"
    cap-height="1454"
    bbox="-78 -440 1675 1849"
    underline-thickness="102"
    underline-position="-306"
    unicode-range="U+000D-FB04"
  />
<missing-glyph horiz-adv-x="748" 
d="M68 0v1365h544v-1365h-544zM136 68h408v1229h-408v-1229z" />
    <glyph glyph-name="uniFB01" unicode="fi" horiz-adv-x="1060" 
d="M53 844v200h99v31q0 121 36.5 204t97 120t112 50t106.5 13q51 0 80 -4v-209q-16 4 -43 4q-143 0 -144 -184v-25h557v-1044h-245v844h-312v-844h-245v844h-99zM709 1221v233h245v-233h-245z" />
    <glyph glyph-name="uniFB02" unicode="fl" horiz-adv-x="1112" 
d="M55 829v201h99v45q0 119 36.5 202t96 120t112 51t109.5 14q51 0 80 -4v-217q-29 4 -41 4q-145 0 -146 -176v-39h158v-201h-158v-829h-247v829h-99zM711 326v1128h245v-1092q0 -86 16.5 -115.5t61.5 -29.5q20 0 33 2v-223q-27 -6 -76 -6q-57 0 -100 11t-87 44t-68.5 104
t-24.5 177z" />
    <glyph glyph-name="uniFB03" unicode="ffi" horiz-adv-x="1679" 
d="M53 844v200h99v31q0 121 36.5 204t97 120t112 50t106.5 13q51 0 80 -4v-209q-16 4 -43 4q-143 0 -144 -184v-25h365v31q0 121 37 204t97 120t111.5 50t106.5 13q51 0 80 -4v-209q-16 4 -41 4q-145 0 -145 -184v-25h563v-1044h-244v844h-319v-844h-246v844h-365v-844h-245
v844h-99zM1325 1221v233h246v-233h-246z" />
    <glyph glyph-name="uniFB04" unicode="ffl" horiz-adv-x="1718" 
d="M53 844v200h99v31q0 121 36.5 204t97 120t112 50t106.5 13q51 0 80 -4v-209q-16 4 -43 4q-143 0 -144 -184v-25h365v31q0 121 37 204t97 120t111.5 50t106.5 13q51 0 80 -4v-209q-16 4 -41 4q-145 0 -145 -184v-25h159v-200h-159v-844h-246v844h-365v-844h-245v844h-99z
M1321 326v1128h246v-1092q0 -86 16 -115.5t59 -29.5q20 0 33 2v-223q-29 -6 -76 -6q-57 0 -99 11t-87 44t-68.5 104t-23.5 177z" />
    <glyph glyph-name=".notdef" horiz-adv-x="748" 
d="M68 0v1365h544v-1365h-544zM136 68h408v1229h-408v-1229z" />
    <glyph glyph-name="glyph1" horiz-adv-x="2048" 
 />
    <glyph glyph-name="glyph1" horiz-adv-x="2048" 
 />
    <glyph glyph-name="uni000D" unicode="&#xd;" horiz-adv-x="681" 
 />
    <glyph glyph-name="space" unicode=" " horiz-adv-x="405" 
 />
    <glyph glyph-name="exclam" unicode="!" horiz-adv-x="499" 
d="M123 1454h256l-23 -1034h-211zM137 0v242h225v-242h-225z" />
    <glyph glyph-name="quotedbl" unicode="&#x22;" horiz-adv-x="679" 
d="M111 1051v430h176v-430h-176zM393 1051v430h176v-430h-176z" />
    <glyph glyph-name="numbersign" unicode="#" horiz-adv-x="1140" 
d="M66 383l26 182h170l39 297h-168l29 182h164l57 410h186l-57 -410h201l57 410h186l-57 -410h176l-26 -182h-175l-38 -297h170l-27 -182h-172l-49 -383h-187l52 383h-203l-51 -383h-185l52 383h-170zM446 565h203l39 297h-201z" />
    <glyph glyph-name="dollar" unicode="$" horiz-adv-x="935" 
d="M59 139l117 203q49 -47 122 -79t140 -32q84 0 131 45.5t47 118.5q0 53 -28.5 97.5t-74.5 77t-102.5 64.5t-112.5 69.5t-102 82.5t-75 113t-29 152q0 145 81 249.5t226 137.5v225h158v-215q164 -6 293 -90l-94 -211q-39 29 -111 52.5t-125 23.5q-82 0 -128 -45t-46 -117
q0 -59 39 -109.5t97.5 -83t127 -76.5t127 -89.5t97 -122t38.5 -172.5q0 -147 -81.5 -256t-233.5 -140v-219h-158v211q-201 16 -340 135z" />
    <glyph glyph-name="percent" unicode="%" horiz-adv-x="1351" 
d="M72 1153q0 137 75.5 231.5t196.5 94.5q123 0 200 -94.5t77 -231.5t-77 -229.5t-200 -92.5q-121 0 -196.5 92.5t-75.5 229.5zM125 0l887 1454h209l-887 -1454h-209zM254 1155q0 -143 90 -143q94 0 94 143q0 141 -94 141q-90 0 -90 -141zM733 299q0 135 76 229.5t199 94.5
q121 0 197.5 -94.5t76.5 -229.5q0 -137 -76 -230.5t-198.5 -93.5t-198.5 92.5t-76 231.5zM918 299q0 -141 90 -141q92 0 92 141q0 143 -92 143q-90 0 -90 -143z" />
    <glyph glyph-name="ampersand" unicode="&#x26;" horiz-adv-x="1105" 
d="M80 410q0 258 207 362v8q-160 94 -160 320q0 186 111.5 282.5t267.5 96.5q92 0 164 -27l-58 -205q-29 14 -77 15q-72 0 -114 -54.5t-42 -138.5t43 -142.5t115 -58.5h133v183h243v-183h142v-223h-142v-211q0 -213 -116.5 -336t-300.5 -123q-186 0 -301 121t-115 314z
M336 422q0 -96 41 -153.5t119 -57.5q76 0 125 61.5t49 196.5v176h-148q-80 0 -133 -55t-53 -168z" />
    <glyph glyph-name="quotesingle" unicode="'" horiz-adv-x="401" 
d="M111 1051v430h180v-430h-180z" />
    <glyph glyph-name="parenleft" unicode="(" horiz-adv-x="528" 
d="M78 702q0 430 192 816h203q-178 -385 -178 -816q0 -465 178 -897h-203q-193 395 -192 897z" />
    <glyph glyph-name="parenright" unicode=")" horiz-adv-x="528" 
d="M55 -195q178 424 178 897q0 430 -178 816h203q195 -389 195 -816q0 -498 -195 -897h-203z" />
    <glyph glyph-name="asterisk" unicode="*" horiz-adv-x="858" 
d="M74 1065l82 221l180 -98l-17 266h218l-17 -266l180 98l84 -219l-209 -66v-4l152 -221l-182 -119l-115 224h-4l-113 -224l-184 119l152 221v4z" />
    <glyph glyph-name="plus" unicode="+" 
d="M74 483v203h329v485h195v-485h330v-203h-330v-483h-195v483h-329z" />
    <glyph glyph-name="comma" unicode="," horiz-adv-x="485" 
d="M37 -215l113 481h235l-166 -481h-182z" />
    <glyph glyph-name="hyphen" unicode="-" horiz-adv-x="698" 
d="M106 471v229h486v-229h-486z" />
    <glyph glyph-name="period" unicode="." horiz-adv-x="446" 
d="M106 0v260h234v-260h-234z" />
    <glyph glyph-name="slash" unicode="/" horiz-adv-x="718" 
d="M55 -86l404 1616h207l-406 -1616h-205z" />
    <glyph glyph-name="zero" unicode="0" horiz-adv-x="1034" 
d="M92 729q0 168 19.5 296t65.5 234.5t132 163t209 56.5t208 -56.5t130 -164t64.5 -234.5t19.5 -295t-19.5 -296t-64.5 -235.5t-130 -165t-208 -57.5t-209 57.5t-132 165t-65.5 235.5t-19.5 296zM348 729q0 -252 35 -384t135 -132q98 0 133 133t35 383q0 248 -35 380
t-133 132q-100 0 -135 -132t-35 -380z" />
    <glyph glyph-name="one" unicode="1" horiz-adv-x="862" 
d="M67 1094l297 360h215v-1239h240v-215h-725v215h242v817l4 92h-4q-12 -33 -47 -75l-76 -97z" />
    <glyph glyph-name="two" unicode="2" horiz-adv-x="962" 
d="M69 1276q57 88 164 145.5t225 57.5q170 0 285 -108.5t115 -301.5q0 -123 -50.5 -228.5t-122 -180t-143 -142t-125 -143.5t-57.5 -154h514v-221h-766q-12 70 -12 135q0 100 27.5 186.5t71.5 150t97.5 118.5t107.5 106.5t98 101.5t72 112.5t28 131.5q0 94 -47 144.5
t-127 50.5q-119 0 -185 -100z" />
    <glyph glyph-name="three" unicode="3" horiz-adv-x="929" 
d="M61 106l115 199q88 -88 205 -88q94 0 154.5 59.5t60.5 172.5q0 219 -272 219h-93l-51 145l264 334l80 86v4q-37 -4 -102 -4h-309v221h700v-199l-317 -389q166 -25 262 -133t96 -287q0 -199 -119 -335t-330 -136t-344 131z" />
    <glyph glyph-name="four" unicode="4" horiz-adv-x="1003" 
d="M49 352v178l443 924h311v-872h139v-230h-139v-352h-244v352h-510zM289 582h270v460l4 132h-4q-12 -55 -37 -113l-233 -475v-4z" />
    <glyph glyph-name="five" unicode="5" horiz-adv-x="935" 
d="M68 104l114 201q98 -88 213 -88q102 0 158.5 74t56.5 186q0 115 -63.5 180.5t-161.5 65.5q-63 0 -131 -31l-137 60l51 702h616v-221h-399l-18 -236l-7 -65h5q35 12 92 12q158 0 285.5 -126t127.5 -345q0 -213 -128 -355.5t-324 -142.5q-198 0 -350 129z" />
    <glyph glyph-name="six" unicode="6" 
d="M84 664q0 154 29.5 292t92 258.5t172 192.5t255.5 72q133 0 229 -52l-65 -221q-74 37 -158 37q-238 0 -281 -379h2q68 78 203 78q168 0 271.5 -137t103.5 -342q0 -209 -108.5 -348.5t-288.5 -139.5q-201 0 -329 182.5t-128 506.5zM340 549q0 -125 54.5 -231.5
t152.5 -106.5q70 0 104.5 66.5t34.5 171.5q0 117 -46 197.5t-151 80.5q-70 0 -109.5 -46t-39.5 -132z" />
    <glyph glyph-name="seven" unicode="7" horiz-adv-x="890" 
d="M64 1233v221h795v-186l-488 -1268h-258l428 1092l62 141v4q-27 -4 -72 -4h-467z" />
    <glyph glyph-name="eight" unicode="8" horiz-adv-x="1009" 
d="M78 377q0 76 23.5 146.5t62.5 121.5t66.5 79t54.5 50q-164 139 -164 330q0 160 97.5 267.5t288 107.5t290.5 -101.5t100 -257.5q0 -186 -157 -383q186 -137 186 -348q0 -176 -112.5 -295t-317.5 -119q-201 0 -309.5 116t-108.5 286zM332 410q0 -92 44 -149.5t128 -57.5
q80 0 124 51t44 131q0 23 -4 44.5t-8 37.5t-17.5 34.5t-19.5 29t-25.5 27.5t-26 23.5t-32 23t-29.5 19.5t-32.5 20.5t-30.5 17.5q-115 -109 -115 -252zM367 1104q0 -51 16.5 -92t49 -74t59 -52.5t71.5 -45.5q90 113 90 239q0 172 -151 172q-135 0 -135 -147z" />
    <glyph glyph-name="nine" unicode="9" horiz-adv-x="1003" 
d="M70 985q0 215 108.5 354.5t295 139.5t315.5 -187.5t129 -505.5q0 -154 -32 -293t-96.5 -257.5t-176 -189.5t-256.5 -71q-132 1 -232 50l72 223q66 -37 155 -37q250 0 293 379h-2q-72 -78 -204 -78q-172 0 -270.5 135t-98.5 338zM322 1006q0 -119 44 -199t146 -80
q70 0 110 46t40 132q0 123 -54.5 230.5t-146.5 107.5q-68 0 -103.5 -67.5t-35.5 -169.5z" />
    <glyph glyph-name="colon" unicode=":" horiz-adv-x="446" 
d="M106 0v262h236v-262h-236zM106 782v262h236v-262h-236z" />
    <glyph glyph-name="semicolon" unicode=";" horiz-adv-x="509" 
d="M57 -215l99 481h237l-151 -481h-185zM162 782v262h229v-262h-229z" />
    <glyph glyph-name="less" unicode="&#x3c;" 
d="M88 508v156l780 444v-227l-530 -293v-4l530 -293v-228z" />
    <glyph glyph-name="equal" unicode="=" 
d="M106 272v203h789v-203h-789zM106 694v203h789v-203h-789z" />
    <glyph glyph-name="greater" unicode="&#x3e;" 
d="M131 63v228l531 293v4l-531 293v227l780 -444v-156z" />
    <glyph glyph-name="question" unicode="?" horiz-adv-x="813" 
d="M59 1382q123 100 303 101q168 0 275.5 -108.5t107.5 -295.5q0 -90 -28.5 -162.5t-68.5 -120.5t-81 -92.5t-69.5 -100.5t-28.5 -122v-61h-236v78q0 86 27 155.5t63.5 114.5t73.5 86t63.5 93t26.5 112q0 88 -47 139t-118 51q-94 0 -150 -53zM238 0v242h227v-242h-227z" />
    <glyph glyph-name="at" unicode="@" horiz-adv-x="1331" 
d="M86 502q0 330 173 542t460 212q209 0 320.5 -117t111.5 -313v-535h117v-180h-434q-166 0 -248 109.5t-82 271.5t81 268.5t249 106.5h88q2 90 -55.5 135t-141.5 45q-193 0 -296 -153.5t-103 -391.5q0 -246 110.5 -405.5t298.5 -159.5v-197q-295 0 -472 214t-177 548z
M711 498q0 -90 33.5 -144.5t103.5 -54.5h74v400h-70q-72 0 -106.5 -56.5t-34.5 -144.5z" />
    <glyph glyph-name="A" unicode="A" horiz-adv-x="1054" 
d="M10 0l381 1454h271l382 -1454h-249l-90 375h-357l-88 -375h-250zM389 584h277l-93 391l-43 225h-6q-23 -141 -41 -225z" />
    <glyph glyph-name="B" unicode="B" horiz-adv-x="1036" 
d="M131 0v1454h393q178 0 289 -99.5t111 -275.5q0 -102 -45 -185t-125 -126v-4q106 -35 161.5 -128t55.5 -216q0 -211 -119 -315.5t-320 -104.5h-401zM381 221h147q94 0 140.5 58.5t46.5 154.5q0 98 -43 157.5t-115 59.5h-176v-430zM381 858h154q61 0 98 54.5t37 136.5
q0 84 -41 134t-113 50h-135v-375z" />
    <glyph glyph-name="C" unicode="C" horiz-adv-x="1114" 
d="M70 729q0 332 171 541t466 209q219 0 354 -121l-105 -215q-37 43 -106.5 71.5t-134.5 28.5q-182 0 -285.5 -143.5t-103.5 -360.5q0 -221 105.5 -374.5t279.5 -153.5q137 0 270 106l102 -211q-160 -131 -391 -131q-289 0 -455.5 211t-166.5 543z" />
    <glyph glyph-name="D" unicode="D" horiz-adv-x="1191" 
d="M131 0v1454h404q270 0 427.5 -191.5t157.5 -533.5t-157.5 -535.5t-427.5 -193.5h-404zM381 223h143q162 0 250 130t88 376q0 242 -89 372t-249 130h-143v-1008z" />
    <glyph glyph-name="E" unicode="E" horiz-adv-x="905" 
d="M131 0v1454h692v-221h-442v-389h356v-221h-356v-402h467v-221h-717z" />
    <glyph glyph-name="F" unicode="F" horiz-adv-x="847" 
d="M131 0v1454h674v-221h-424v-420h354v-221h-354v-592h-250z" />
    <glyph glyph-name="G" unicode="G" horiz-adv-x="1226" 
d="M70 723q0 340 172 548t456 208q227 0 385 -127l-106 -211q-109 102 -268 102q-182 0 -282.5 -141t-100.5 -371q0 -231 102 -373.5t260 -142.5q150 0 234 102v230h-164v221h385v-768h-197v53l4 56h-4q-45 -59 -128 -96.5t-177 -37.5q-233 0 -402 205t-169 543z" />
    <glyph glyph-name="H" unicode="H" horiz-adv-x="1208" 
d="M131 0v1454h250v-618h448v618h248v-1454h-248v614h-448v-614h-250z" />
    <glyph glyph-name="I" unicode="I" horiz-adv-x="512" 
d="M131 0v1454h250v-1454h-250z" />
    <glyph glyph-name="J" unicode="J" horiz-adv-x="899" 
d="M35 426v90h250v-92q0 -129 33.5 -173t89.5 -44q59 0 89.5 46t30.5 171v809h-274v221h522v-1028q0 -231 -106.5 -341t-264 -110t-264 111t-106.5 340z" />
    <glyph glyph-name="K" unicode="K" horiz-adv-x="1052" 
d="M131 0v1454h250v-590h104l265 590h268l-309 -692v-4l327 -758h-282l-269 635h-104v-635h-250z" />
    <glyph glyph-name="L" unicode="L" horiz-adv-x="872" 
d="M131 0v1454h250v-1233h469v-221h-719z" />
    <glyph glyph-name="M" unicode="M" horiz-adv-x="1402" 
d="M88 0l94 1454h275l196 -706l45 -222h7q25 133 45 222l196 706h275l92 -1454h-232l-49 809q-2 51 -2 101.5t2 86.5l2 37h-6q-27 -147 -49 -233l-156 -551h-243l-156 551l-47 233h-8q0 -14 1 -36q1 -24 3 -88q1 -22 1 -39q0 -37 -3 -62l-49 -809h-234z" />
    <glyph glyph-name="N" unicode="N" horiz-adv-x="1200" 
d="M131 0v1454h262l375 -823q16 -39 34.5 -94.5t28.5 -90.5l11 -36h8q-14 137 -14 223v821h233v-1454h-260l-375 825q-16 41 -34.5 96.5t-28.5 90.5l-11 35h-8q14 -137 15 -224v-823h-236z" />
    <glyph glyph-name="O" unicode="O" horiz-adv-x="1310" 
d="M70 737q0 330 159.5 536t426 206t426 -206t159.5 -538q0 -336 -159.5 -548t-426.5 -212q-268 0 -426.5 212t-158.5 550zM326 737q0 -240 88 -381t241 -141q152 0 240 141.5t88 378.5q0 233 -87 368.5t-240.5 135.5t-241.5 -135.5t-88 -366.5z" />
    <glyph glyph-name="P" unicode="P" horiz-adv-x="1013" 
d="M131 0v1454h414q190 0 310 -132t120 -343t-120 -344t-310 -133h-164v-502h-250zM381 723h121q100 0 159.5 69.5t59.5 186.5q0 115 -60.5 184.5t-154.5 69.5h-125v-510z" />
    <glyph glyph-name="Q" unicode="Q" horiz-adv-x="1310" 
d="M70 737q0 330 159.5 536t426 206t426 -206t159.5 -538q0 -264 -125 -471l150 -141l-140 -164l-143 141q-137 -125 -328 -125q-268 0 -426.5 212t-158.5 550zM326 737q0 -244 88 -387t241 -143q90 0 160 61l-168 166l141 162l140 -156q55 129 55 295q0 233 -87 368.5
t-240.5 135.5t-241.5 -135.5t-88 -366.5z" />
    <glyph glyph-name="R" unicode="R" horiz-adv-x="1056" 
d="M131 0v1454h422q100 0 190 -45q100 -47 160 -148.5t60 -238.5q0 -135 -61.5 -241.5t-151.5 -157.5v-5q18 -27 43 -77l241 -541h-274l-221 543h-158v-543h-250zM381 764h133q80 0 137.5 64.5t57.5 172.5q0 137 -78 195q-51 35 -113 35h-137v-467z" />
    <glyph glyph-name="S" unicode="S" horiz-adv-x="905" 
d="M45 117l117 213q115 -123 252 -123q82 0 130 50t48 130q0 53 -28.5 98t-74 79t-99.5 68t-108.5 73.5t-99.5 87t-73.5 117t-28.5 155.5q0 180 116.5 297t315.5 117q182 0 322 -97l-91 -221q-39 33 -105.5 58.5t-121.5 25.5q-90 0 -138 -51t-48 -127q0 -72 53 -129
t128 -100t150.5 -94.5t129 -139.5t53.5 -207q0 -180 -110.5 -301t-311.5 -121q-221 1 -377 142z" />
    <glyph glyph-name="T" unicode="T" horiz-adv-x="999" 
d="M25 1233v221h950v-221h-352v-1233h-248v1233h-350z" />
    <glyph glyph-name="U" unicode="U" horiz-adv-x="1171" 
d="M123 469v985h248v-983q0 -133 56 -198.5t158.5 -65.5t159 65.5t56.5 198.5v983h250v-985q0 -229 -126 -361.5t-337 -132.5q-213 0 -339 132.5t-126 361.5z" />
    <glyph glyph-name="V" unicode="V" horiz-adv-x="1069" 
d="M4 1454h268l224 -946l34 -211h9q16 127 36 211l224 946h264l-401 -1454h-256z" />
    <glyph glyph-name="W" unicode="W" horiz-adv-x="1517" 
d="M27 1454h245l158 -1001l14 -162h9q4 92 16 162l176 1001h240l166 -1001l16 -162h8q4 92 15 162l157 1001h244l-264 -1454h-289l-150 856l-20 193h-8q-6 -96 -23 -191l-155 -858h-289z" />
    <glyph glyph-name="X" unicode="X" horiz-adv-x="1026" 
d="M20 0l345 737l-340 717h276l150 -354l61 -174h4q25 88 62 174l151 354h275l-342 -717l346 -737h-271l-162 389l-61 168h-4q-25 -82 -59 -168l-162 -389h-269z" />
    <glyph glyph-name="Y" unicode="Y" horiz-adv-x="989" 
d="M-2 1454h274l162 -426l58 -192h6q27 102 59 192l160 426h274l-373 -846v-608h-247v608z" />
    <glyph glyph-name="Z" unicode="Z" horiz-adv-x="980" 
d="M53 0v172l490 928l80 133v4q-31 -4 -82 -4h-465v221h835v-170l-491 -930l-80 -133v-4q31 4 82 4h498v-221h-867z" />
    <glyph glyph-name="bracketleft" unicode="[" horiz-adv-x="557" 
d="M127 -195v1713h360v-183h-153v-1347h153v-183h-360z" />
    <glyph glyph-name="backslash" unicode="\" horiz-adv-x="716" 
d="M53 1530h207l404 -1616h-207z" />
    <glyph glyph-name="bracketright" unicode="]" horiz-adv-x="557" 
d="M70 -12h153v1347h-153v183h360v-1713h-360v183z" />
    <glyph glyph-name="asciicircum" unicode="^" horiz-adv-x="985" 
d="M94 502l320 952h153l320 -952h-209l-189 631l-186 -631h-209z" />
    <glyph glyph-name="underscore" unicode="_" horiz-adv-x="989" 
d="M35 0h919v-203h-919v203z" />
    <glyph glyph-name="grave" unicode="`" horiz-adv-x="770" 
d="M203 1831h246l126 -281h-194z" />
    <glyph glyph-name="a" unicode="a" horiz-adv-x="882" 
d="M47 299q0 84 28.5 148.5t73 102.5t106.5 61.5t120.5 31.5t124.5 8h37v23q0 188 -146 188q-109 0 -221 -71l-66 186q51 39 140.5 65.5t177.5 26.5q174 0 267 -107.5t93 -308.5v-653h-217v68l4 77h-4q-39 -70 -104.5 -115.5t-145.5 -45.5q-115 0 -191.5 84t-76.5 231z
M272 317q0 -59 28 -98t79 -39q76 0 117 72t41 160v77h-37q-228 0 -228 -172z" />
    <glyph glyph-name="b" unicode="b" horiz-adv-x="1009" 
d="M111 0v1454h243v-432l-4 -88h4q66 135 236 135q168 0 262 -149.5t94 -395.5q0 -250 -100.5 -399.5t-270.5 -149.5q-178 0 -243 140h-4q6 -31 6 -68v-47h-223zM348 520q0 -332 172 -332q86 0 132 86t46 246q0 156 -44 244t-130 88q-176 0 -176 -332z" />
    <glyph glyph-name="c" unicode="c" horiz-adv-x="880" 
d="M59 520.5q0 237.5 128 393t356 155.5q172 0 280 -100l-86 -187q-74 74 -182 74q-117 0 -182.5 -93t-65.5 -239q0 -143 64.5 -239.5t185.5 -96.5q125 0 223 95l66 -191q-117 -117 -320 -117q-215 0 -341 154t-126 391.5z" />
    <glyph glyph-name="d" unicode="d" horiz-adv-x="1007" 
d="M63 524q0 250 97.5 397.5t273.5 147.5q160 0 219 -108h4q-4 35 -4 69v424h246v-1454h-231v70l6 67h-4q-68 -162 -252 -162q-168 0 -261.5 149.5t-93.5 399.5zM311 522q0 -334 174 -334q80 0 128.5 82t48.5 246q0 145 -42 240.5t-131 95.5q-178 0 -178 -330z" />
    <glyph glyph-name="e" unicode="e" horiz-adv-x="911" 
d="M61 532q0 238 110 387.5t304 149.5q186 0 278.5 -135t92.5 -344q0 -31 -4 -113h-533q8 -145 71.5 -216t156.5 -71q139 0 237 93l64 -187q-125 -121 -330 -121q-217 0 -332 156.5t-115 400.5zM305 641h305q0 231 -139 231q-141 0 -166 -231z" />
    <glyph glyph-name="f" unicode="f" horiz-adv-x="598" 
d="M55 829v201h99v45q0 119 36.5 202t96 120t112 51t109.5 14q51 0 80 -4v-217q-29 4 -41 4q-145 0 -146 -176v-39h158v-201h-158v-829h-247v829h-99z" />
    <glyph glyph-name="g" unicode="g" horiz-adv-x="997" 
d="M66 545q0 229 94 376.5t268 147.5q166 0 234 -131h4q-2 10 -2 29v77h223v-978q0 -252 -131 -374t-316 -122q-162 0 -293 76l58 200q92 -61 217 -61q219 0 219 262v45l4 62h-4q-33 -68 -81 -101t-130 -33q-178 0 -271 149.5t-93 375.5zM313 555q0 -145 42 -232t128 -87
q164 0 164 311q0 307 -168 307q-166 0 -166 -299z" />
    <glyph glyph-name="h" unicode="h" horiz-adv-x="1003" 
d="M111 0v1454h243v-481l-4 -82h4q88 178 277 178q123 0 196.5 -91t73.5 -273v-705h-246v653q0 178 -110 178q-88 0 -139.5 -97t-51.5 -208v-526h-243z" />
    <glyph glyph-name="i" unicode="i" horiz-adv-x="464" 
d="M109 1221v233h245v-233h-245zM111 0v1044h243v-1044h-243z" />
    <glyph glyph-name="j" unicode="j" horiz-adv-x="464" 
d="M-78 -207q10 -2 35 -2t47.5 7t49 24.5t42 60t15.5 101.5v1060h243v-1075q0 -100 -27.5 -175t-66.5 -114.5t-92 -64.5t-94 -32t-84 -7q-37 0 -68 6v211zM109 1221v233h243v-233h-243z" />
    <glyph glyph-name="k" unicode="k" horiz-adv-x="931" 
d="M111 0v1454h243v-770h80l189 360h264l-244 -466v-5l272 -573h-272l-203 455h-86v-455h-243z" />
    <glyph glyph-name="l" unicode="l" horiz-adv-x="507" 
d="M109 326v1128h245v-1092q0 -86 16.5 -115.5t61.5 -29.5q20 0 33 2v-223q-27 -6 -76 -6q-57 0 -100 11t-87 44t-68.5 104t-24.5 177z" />
    <glyph glyph-name="m" unicode="m" horiz-adv-x="1460" 
d="M111 0v1044h235v-69l-4 -66h4q82 160 256 160q162 0 221 -160h6q51 74 113 117t162 43q117 0 185.5 -86t68.5 -258v-725h-246v682q0 156 -98 156q-72 0 -115 -75t-43 -175v-588h-246v682q0 156 -98 156q-74 0 -116 -81t-42 -188v-569h-243z" />
    <glyph glyph-name="n" unicode="n" horiz-adv-x="1003" 
d="M111 0v1044h235v-69l-4 -66h4q84 160 277 160q129 0 203.5 -86t74.5 -258v-725h-246v682q0 156 -110 156q-88 0 -139.5 -86t-51.5 -183v-569h-243z" />
    <glyph glyph-name="o" unicode="o" horiz-adv-x="1026" 
d="M59 522.5q0 241.5 126 394t329 152.5t328 -152.5t125 -394t-125 -394.5t-328 -153t-329 153t-126 394.5zM307 522.5q0 -151.5 54.5 -243t152.5 -91.5q96 0 150.5 91.5t54.5 243t-54.5 242.5t-150.5 91q-98 0 -152.5 -91t-54.5 -242.5z" />
    <glyph glyph-name="p" unicode="p" horiz-adv-x="1007" 
d="M111 -410v1454h221v-59l-4 -72h4q70 156 252 156q172 0 266 -148.5t94 -394.5q0 -252 -100.5 -401.5t-268.5 -149.5q-72 0 -132 31t-89 88h-4q4 -37 4 -86v-418h-243zM348 522q0 -334 172 -334q86 0 132 86t46 244t-44 246t-130 88q-176 0 -176 -330z" />
    <glyph glyph-name="q" unicode="q" horiz-adv-x="1007" 
d="M63 522q0 252 98.5 399.5t274.5 147.5q78 0 143.5 -36t94.5 -99h4q-6 35 -6 74v36h227v-1454h-246v437l4 88h-4q-25 -66 -87 -103t-142 -37q-172 0 -266.5 149.5t-94.5 397.5zM311 522q0 -158 44 -246t130 -88q177 0 177 334q0 330 -173 330q-178 0 -178 -330z" />
    <glyph glyph-name="r" unicode="r" horiz-adv-x="669" 
d="M111 0v1044h235v-155l-4 -72h4q25 98 97.5 170t154.5 72q25 0 39 -4v-252q-16 4 -53 4q-115 0 -172.5 -112.5t-57.5 -262.5v-432h-243z" />
    <glyph glyph-name="s" unicode="s" horiz-adv-x="745" 
d="M41 90l94 182q113 -88 211 -88q51 0 82 28t31 73q0 41 -29 74.5t-71 55t-91 53.5t-91 64.5t-70.5 92t-28.5 135.5q0 143 91 226t245 83q150 0 258 -78l-74 -194q-92 63 -180 63q-47 0 -78 -25.5t-31 -72.5q0 -39 29 -72t71 -53.5t91 -51t91 -63.5t70.5 -92t28.5 -135
q0 -137 -87 -228.5t-249 -91.5q-180 0 -313 115z" />
    <glyph glyph-name="t" unicode="t" horiz-adv-x="624" 
d="M39 829v201h113v299h237v-299h174v-201h-174v-417q0 -117 41 -156t109 -39q27 0 39 2v-223q-37 -6 -72 -6q-45 0 -86 7t-93.5 31.5t-90 64.5t-64.5 115t-27 175v446h-106z" />
    <glyph glyph-name="u" unicode="u" horiz-adv-x="997" 
d="M102 319v725h246v-682q0 -155 110 -155h1q82 0 133 85t51 181v571h244v-1044h-236v70l4 65h-4q-88 -160 -268 -160q-131 0 -206 86t-75 258z" />
    <glyph glyph-name="v" unicode="v" horiz-adv-x="913" 
d="M25 1044h258l145 -645l25 -157h6q12 96 24 157l146 645h258l-281 -1044h-297z" />
    <glyph glyph-name="w" unicode="w" horiz-adv-x="1320" 
d="M25 1044h241l117 -684l12 -110h6q6 68 15 110l129 682h233l131 -682l13 -110h6q4 55 14 110l117 684h237l-221 -1044h-280l-117 600l-12 113h-7q-4 -63 -14 -113l-117 -600h-284z" />
    <glyph glyph-name="x" unicode="x" horiz-adv-x="868" 
d="M25 0l256 543l-246 501h252l114 -272l25 -72h6q12 45 25 72l123 272h254l-248 -501l258 -543h-240l-141 319l-21 66h-6q-10 -39 -22 -66l-144 -319h-245z" />
    <glyph glyph-name="y" unicode="y" horiz-adv-x="897" 
d="M8 1044h262l158 -600l21 -141h8q10 84 20 137l137 604h256l-335 -1189q-41 -141 -130.5 -213t-193.5 -72q-47 0 -91 14.5t-67 26.5l-20 14l67 187q47 -35 97 -35q39 0 75.5 36.5t59.5 108.5l22 84z" />
    <glyph glyph-name="z" unicode="z" horiz-adv-x="851" 
d="M57 0v139l365 602l63 95v4q-18 -4 -67 -4h-346v208h710v-141l-362 -600l-68 -96v-4q18 6 70 6h369v-209h-734z" />
    <glyph glyph-name="braceleft" unicode="{" horiz-adv-x="622" 
d="M59 560v223q135 23 136 217v178q0 109 30.5 183.5t82.5 107.5t95 44t91 11l61 -2v-186q-14 2 -35 2q-121 0 -121 -174v-230q0 -190 -131 -260v-4q68 -29 99.5 -101.5t31.5 -156.5v-252q0 -174 121 -174l35 4v-188q-25 -4 -61 -4q-47 0 -90.5 11t-95.5 44t-82.5 107.5
t-30.5 185.5v201q0 80 -32 140t-104 73z" />
    <glyph glyph-name="bar" unicode="|" horiz-adv-x="454" 
d="M125 -332v1962h205v-1962h-205z" />
    <glyph glyph-name="braceright" unicode="}" horiz-adv-x="622" 
d="M66 -10q14 -4 34 -4q121 0 121 174v252q0 86 33 159t98 99v4q-61 29 -96 98.5t-35 161.5v230q0 174 -121 174l-34 -2v186q27 2 63 2q47 0 90 -11t95.5 -44t83 -107.5t30.5 -183.5v-178q0 -193 133 -217v-223q-66 -8 -99.5 -68.5t-33.5 -144.5v-201q0 -111 -30.5 -185.5
t-83 -107.5t-95.5 -44t-90 -11l-63 4v188z" />
    <glyph glyph-name="asciitilde" unicode="~" horiz-adv-x="1011" 
d="M96 408q0 186 66.5 279t187.5 93q63 0 112.5 -28.5t74 -64.5t53 -64.5t55.5 -28.5q41 0 62.5 51t21.5 127h191q0 -186 -67 -279.5t-185 -93.5q-63 0 -113.5 29t-74 63.5t-52.5 63.5t-55 29q-41 0 -62.5 -50.5t-21.5 -125.5h-193z" />
    <glyph glyph-name="uni00A0" unicode="&#xa0;" horiz-adv-x="405" 
 />
    <glyph glyph-name="exclamdown" unicode="&#xa1;" horiz-adv-x="466" 
d="M105 -412l22 1034h211l23 -1034h-256zM121 800v242h225v-242h-225z" />
    <glyph glyph-name="cent" unicode="&#xa2;" horiz-adv-x="935" 
d="M70 727q0 223 92 384t241 194v172h160v-172q104 -20 182 -93t115 -182l-213 -92q-45 133 -151 133q-80 0 -130.5 -97t-50.5 -247q0 -156 49.5 -250t131.5 -94q106 0 151 135l213 -92q-35 -102 -110.5 -180t-186.5 -94v-177h-160v177q-150 33 -241.5 192.5t-91.5 382.5z
" />
    <glyph glyph-name="sterling" unicode="&#xa3;" horiz-adv-x="935" 
d="M66 637v178h94v234q0 199 103.5 314.5t271.5 115.5q197 0 309 -115l-129 -180q-66 61 -156 61q-68 0 -105.5 -52t-37.5 -136v-242h266v-178h-266v-416h469v-221h-813v223h88v414h-94z" />
    <glyph glyph-name="yen" unicode="&#xa5;" horiz-adv-x="935" 
d="M8 1470h273l137 -421l47 -199h6q20 98 49 199l137 421h273l-228 -591h150v-156h-217l-41 -100v-68h258v-158h-258v-397h-252v397h-258v158h258v68l-41 100h-217v156h149z" />
    <glyph glyph-name="section" unicode="&#xa7;" horiz-adv-x="817" 
d="M82 -31l90 164q96 -61 199 -61q162 0 161 198q0 37 -12 111l-114 686h194l119 -700q12 -59 12 -115q0 -162 -88 -270.5t-266 -108.5q-174 0 -295 96zM84 1102q0 160 89 268.5t267 108.5q174 0 295 -97l-90 -163q-88 61 -199 61q-162 0 -161 -199q0 -51 14 -112l113 -684
h-195l-119 700q-14 63 -14 117z" />
    <glyph glyph-name="dieresis" unicode="&#xa8;" horiz-adv-x="768" 
d="M135 1591v240h182v-240h-182zM451 1591v240h182v-240h-182z" />
    <glyph glyph-name="copyright" unicode="&#xa9;" horiz-adv-x="1314" 
d="M84 727q0 326 157.5 539t413.5 213q262 0 419 -212t157 -540t-156.5 -540t-419.5 -212q-256 0 -413.5 213t-157.5 539zM252 727q0 -264 107.5 -428t295.5 -164q195 0 301.5 163t106.5 429t-107.5 429t-300.5 163q-188 0 -295.5 -164t-107.5 -428zM381 723
q0 164 75.5 281.5t213.5 117.5q88 0 153.5 -58t87.5 -149l-131 -53q-8 39 -37.5 69t-66.5 30q-59 0 -90 -70t-31 -172q0 -96 27.5 -164t89.5 -68q41 0 71.5 31t42.5 74l125 -60q-20 -86 -86.5 -147t-156.5 -61q-135 0 -211 117.5t-76 281.5z" />
    <glyph glyph-name="ordfeminine" unicode="&#xaa;" horiz-adv-x="698" 
d="M109 987q0 72 30.5 121t80.5 68.5t87 26.5t74 7h25v21q0 106 -87 106q-63 0 -124 -41l-54 119q29 25 89.5 42.5t115.5 17.5q231 0 232 -267v-411h-150v96h-4q-50 -109 -148 -109q-72 0 -119.5 54.5t-47.5 148.5zM111 545v141h473v-141h-473zM260 1001q0 -35 19.5 -56
t44.5 -21q35 0 58.5 38.5t23.5 96.5v35h-25q-121 0 -121 -93z" />
    <glyph glyph-name="guillemotleft" unicode="&#xab;" horiz-adv-x="1015" 
d="M66 578l258 421h227l-258 -421l258 -420h-227zM455 578l260 421h225l-258 -421l258 -420h-225z" />
    <glyph glyph-name="logicalnot" unicode="&#xac;" horiz-adv-x="1005" 
d="M98 694v203h789v-604h-195v401h-594z" />
    <glyph glyph-name="uni00AD" unicode="&#xad;" horiz-adv-x="698" 
d="M106 471v229h486v-229h-486z" />
    <glyph glyph-name="registered" unicode="&#xae;" horiz-adv-x="1314" 
d="M84 727q0 326 157.5 539t413.5 213q262 0 419 -212t157 -540t-156.5 -540t-419.5 -212q-256 0 -413.5 213t-157.5 539zM252 727q0 -264 107.5 -428t295.5 -164q195 0 301.5 163t106.5 429t-107.5 429t-300.5 163q-188 0 -295.5 -164t-107.5 -428zM451 356v750h256
q88 0 140 -64.5t52 -173.5q0 -78 -31.5 -129t-66.5 -65v-4q8 -10 20 -45l94 -269h-165l-86 277h-54v-277h-159zM610 756h56q72 0 71 112q0 109 -69 109h-58v-221z" />
    <glyph glyph-name="macron" unicode="&#xaf;" horiz-adv-x="770" 
d="M172 1604v180h426v-180h-426z" />
    <glyph glyph-name="degree" unicode="&#xb0;" horiz-adv-x="700" 
d="M74 1157q0 135 76.5 229.5t199.5 94.5q121 0 198 -94.5t77 -229.5q0 -137 -76 -230t-199 -93t-199.5 93t-76.5 230zM256 1157q0 -141 94 -141q92 0 92 141q0 61 -23.5 102t-68.5 41q-47 0 -70.5 -39.5t-23.5 -103.5z" />
    <glyph glyph-name="plusminus" unicode="&#xb1;" 
d="M72 487v197h329v487h199v-487h330v-197h-330v-487h-199v487h-329zM90 -180h821v-197h-821v197z" />
    <glyph glyph-name="uni00B2" unicode="&#xb2;" horiz-adv-x="632" 
d="M51 1646q35 61 103.5 100.5t148.5 39.5q109 0 182.5 -68t73.5 -195q0 -80 -31.5 -145t-76.5 -109.5t-90.5 -81t-78 -76.5t-32.5 -81h319v-164h-499q-8 39 -9 86q0 92 33 165t79 118t93 84t80 84t33 98t-27.5 80.5t-72.5 27.5q-72 0 -113 -69z" />
    <glyph glyph-name="uni00B3" unicode="&#xb3;" horiz-adv-x="632" 
d="M51 926l80 141q55 -51 129 -51q55 0 90 34.5t35 94.5q0 127 -164 127h-55l-33 88l137 188l49 54v2q-20 -4 -65 -5h-174v166h459v-118l-191 -250q102 -16 161.5 -85t59.5 -173q0 -123 -78 -208t-215 -85q-133 0 -225 80z" />
    <glyph glyph-name="acute" unicode="&#xb4;" horiz-adv-x="770" 
d="M199 1550l125 281h245l-178 -281h-192z" />
    <glyph glyph-name="paragraph" unicode="&#xb6;" horiz-adv-x="1044" 
d="M59 975q0 207 103.5 343t265.5 136h535v-229h-359v-1327h-176v596q-162 0 -265.5 138t-103.5 343zM700 -102v1214h174v-1214h-174z" />
    <glyph glyph-name="periodcentered" unicode="&#xb7;" horiz-adv-x="438" 
d="M106 467v262h228v-262h-228z" />
    <glyph glyph-name="cedilla" unicode="&#xb8;" horiz-adv-x="765" 
d="M242 -274q25 -16 69 -17q68 0 68 62q0 63 -76 63l-35 -4l51 221l105 -26v-15l-14 -100q51 -8 84.5 -48t33.5 -110q0 -88 -54 -133t-128 -45q-47 0 -104 14v138z" />
    <glyph glyph-name="uni00B9" unicode="&#xb9;" horiz-adv-x="632" 
d="M72 1534l196 232h156v-740h147v-160h-475v160h154v449l4 57h-4q-6 -18 -31 -47l-47 -55z" />
    <glyph glyph-name="ordmasculine" unicode="&#xba;" horiz-adv-x="774" 
d="M102 1133q0 150 81 246t202 96q123 0 204 -96.5t81 -245.5q0 -152 -80 -249.5t-203 -97.5t-204 97.5t-81 249.5zM125 545v141h524v-141h-524zM276 1133q0 -82 31 -132.5t80 -50.5q47 0 78 50.5t31 132.5q0 80 -31 130t-78 50q-49 0 -80 -50.5t-31 -129.5z" />
    <glyph glyph-name="guillemotright" unicode="&#xbb;" horiz-adv-x="1015" 
d="M76 158l258 420l-258 421h227l258 -421l-258 -420h-227zM465 158l258 420l-258 421h227l258 -421l-258 -420h-227z" />
    <glyph glyph-name="onequarter" unicode="&#xbc;" horiz-adv-x="1634" 
d="M72 1225l196 232h156v-740h147v-160h-475v160h154v449l4 57h-4q-6 -18 -31 -47l-47 -55zM465 0l531 1454h172l-529 -1454h-174zM985 213v139l273 547h221v-538h92v-148h-92v-213h-166v213h-328zM1145 361h168v251l4 105h-4q-16 -49 -37 -92l-131 -262v-2z" />
    <glyph glyph-name="onehalf" unicode="&#xbd;" horiz-adv-x="1619" 
d="M72 1225l196 231h156v-739h147v-160h-475v160h154v448l4 58h-4q-6 -18 -31 -47l-47 -56zM469 0l530 1454h172l-528 -1454h-174zM1026 780q35 61 103.5 100.5t148.5 39.5q109 0 182.5 -68t73.5 -195q0 -80 -32 -145.5t-77 -109.5t-90 -80.5t-77.5 -76.5t-32.5 -81h319
v-164h-500q-8 39 -8 86q0 92 33 165t80 118t93 84t79 84t33 98t-28 80.5t-73 27.5q-72 0 -112 -69z" />
    <glyph glyph-name="threequarters" unicode="&#xbe;" horiz-adv-x="1630" 
d="M67 616l80 142q55 -51 129 -51q55 0 90 33.5t35 95.5q0 127 -164 127h-55l-33 88l137 188l49 53v2q-20 -4 -65 -4h-174v166h459v-119l-191 -250q102 -16 161.5 -84.5t59.5 -173.5q0 -123 -78 -207.5t-215 -84.5q-133 0 -225 79zM461 0l531 1454h172l-529 -1454h-174z
M981 213v139l273 547h221v-538h92v-148h-92v-213h-166v213h-328zM1141 361h168v251l4 105h-4q-16 -49 -37 -92l-131 -262v-2z" />
    <glyph glyph-name="questiondown" unicode="&#xbf;" horiz-adv-x="798" 
d="M61 -37q0 90 29 163t69 121t81 92t69.5 100.5t28.5 121.5v62h235v-78q0 -86 -26.5 -156t-63.5 -115t-73.5 -86t-63.5 -93t-27 -111q0 -88 47.5 -139.5t118.5 -51.5q94 0 150 53l113 -186q-123 -100 -304 -100q-168 0 -275.5 108.5t-107.5 294.5zM342 801v241h227v-241
h-227z" />
    <glyph glyph-name="Agrave" unicode="&#xc0;" horiz-adv-x="1054" 
d="M10 0l381 1454h271l382 -1454h-249l-90 375h-357l-88 -375h-250zM246 1831h246l126 -281h-194zM389 584h277l-93 391l-43 225h-6q-23 -141 -41 -225z" />
    <glyph glyph-name="Aacute" unicode="&#xc1;" horiz-adv-x="1054" 
d="M10 0l381 1454h271l382 -1454h-249l-90 375h-357l-88 -375h-250zM389 584h277l-93 391l-43 225h-6q-23 -141 -41 -225zM418 1550l125 281h245l-178 -281h-192z" />
    <glyph glyph-name="Acircumflex" unicode="&#xc2;" horiz-adv-x="1054" 
d="M10 0l381 1454h271l382 -1454h-249l-90 375h-357l-88 -375h-250zM254 1550l151 281h242l151 -281h-194l-76 168h-4l-76 -168h-194zM389 584h277l-93 391l-43 225h-6q-23 -141 -41 -225z" />
    <glyph glyph-name="Atilde" unicode="&#xc3;" horiz-adv-x="1054" 
d="M10 0l381 1454h271l382 -1454h-249l-90 375h-357l-88 -375h-250zM217 1552q0 283 184 283q43 0 78 -20.5t53.5 -46t39 -46t40.5 -20.5q55 0 55 127h162q0 -137 -47 -210t-135 -73q-55 0 -95 34t-67 66.5t-51 32.5q-55 0 -55 -127h-162zM389 584h277l-93 391l-43 225h-6
q-23 -141 -41 -225z" />
    <glyph glyph-name="Adieresis" unicode="&#xc4;" horiz-adv-x="1054" 
d="M10 0l381 1454h271l382 -1454h-249l-90 375h-357l-88 -375h-250zM276 1591v240h182v-240h-182zM389 584h277l-93 391l-43 225h-6q-23 -141 -41 -225zM592 1591v240h182v-240h-182z" />
    <glyph glyph-name="Aring" unicode="&#xc5;" horiz-adv-x="1054" 
d="M10 0l381 1454h271l382 -1454h-249l-90 375h-357l-88 -375h-250zM360 1686q0 76 50 119.5t116 43.5q68 0 117 -44t49 -119q0 -74 -49 -117t-117 -43q-66 0 -116 43t-50 117zM389 584h277l-93 391l-43 225h-6q-23 -141 -41 -225zM473 1686q0 -70 53 -70t53 70
q0 74 -53 73.5t-53 -73.5z" />
    <glyph glyph-name="AE" unicode="&#xc6;" horiz-adv-x="1480" 
d="M0 0l469 1454h930v-221h-445v-389h357v-221h-357v-402h467v-221h-714v537h-287l-166 -537h-254zM485 752h222v473h-74z" />
    <glyph glyph-name="Ccedilla" unicode="&#xc7;" horiz-adv-x="1116" 
d="M70 729q0 332 171 541t466 209q219 0 354 -121l-105 -215q-37 43 -106.5 71.5t-134.5 28.5q-182 0 -285.5 -143.5t-103.5 -360.5q0 -221 105.5 -374.5t279.5 -153.5q137 0 270 106l102 -211q-145 -119 -350 -129l-8 -67q51 -8 85 -48t34 -110q0 -88 -54.5 -133
t-127.5 -45q-47 0 -105 14v138q25 -16 70 -17q68 0 67 62q0 63 -76 63l-34 -4l34 150q-256 27 -402 233.5t-146 515.5z" />
    <glyph glyph-name="Egrave" unicode="&#xc8;" horiz-adv-x="905" 
d="M131 0v1454h692v-221h-442v-389h356v-221h-356v-402h467v-221h-717zM215 1831h246l126 -281h-194z" />
    <glyph glyph-name="Eacute" unicode="&#xc9;" horiz-adv-x="905" 
d="M131 0v1454h692v-221h-442v-389h356v-221h-356v-402h467v-221h-717zM385 1550l125 281h245l-178 -281h-192z" />
    <glyph glyph-name="Ecircumflex" unicode="&#xca;" horiz-adv-x="905" 
d="M131 0v1454h692v-221h-442v-389h356v-221h-356v-402h467v-221h-717zM224 1550l151 281h242l151 -281h-194l-76 168h-4l-76 -168h-194z" />
    <glyph glyph-name="Edieresis" unicode="&#xcb;" horiz-adv-x="905" 
d="M131 0v1454h692v-221h-442v-389h356v-221h-356v-402h467v-221h-717zM246 1591v240h182v-240h-182zM562 1591v240h182v-240h-182z" />
    <glyph glyph-name="Igrave" unicode="&#xcc;" horiz-adv-x="512" 
d="M-18 1831h246l126 -281h-194zM131 0v1454h250v-1454h-250z" />
    <glyph glyph-name="Iacute" unicode="&#xcd;" horiz-adv-x="512" 
d="M131 0v1454h250v-1454h-250zM154 1550l125 281h245l-178 -281h-192z" />
    <glyph glyph-name="Icircumflex" unicode="&#xce;" horiz-adv-x="512" 
d="M-10 1550l151 281h242l151 -281h-194l-76 168h-4l-76 -168h-194zM131 0v1454h250v-1454h-250z" />
    <glyph glyph-name="Idieresis" unicode="&#xcf;" horiz-adv-x="512" 
d="M12 1591v240h182v-240h-182zM131 0v1454h250v-1454h-250zM328 1591v240h182v-240h-182z" />
    <glyph glyph-name="Eth" unicode="&#xd0;" horiz-adv-x="1200" 
d="M41 618v209h98v627h404q270 0 426.5 -191.5t156.5 -533.5t-156.5 -535.5t-426.5 -193.5h-404v618h-98zM389 223h143q162 0 250 130t88 376q0 242 -89 372t-249 130h-143v-404h203v-209h-203v-395z" />
    <glyph glyph-name="Ntilde" unicode="&#xd1;" horiz-adv-x="1200" 
d="M131 0v1454h262l375 -823q16 -39 34.5 -94.5t28.5 -90.5l11 -36h8q-14 137 -14 223v821h233v-1454h-260l-375 825q-16 41 -34.5 96.5t-28.5 90.5l-11 35h-8q14 -137 15 -224v-823h-236zM293 1552q0 283 184 283q43 0 78 -20.5t53.5 -46t39 -46t40.5 -20.5q55 0 55 127
h162q0 -137 -47 -210t-135 -73q-55 0 -95 34t-67 66.5t-51 32.5q-55 0 -55 -127h-162z" />
    <glyph glyph-name="Ograve" unicode="&#xd2;" horiz-adv-x="1310" 
d="M70 737q0 330 159.5 536t426 206t426 -206t159.5 -538q0 -336 -159.5 -548t-426.5 -212q-268 0 -426.5 212t-158.5 550zM326 737q0 -240 88 -381t241 -141q152 0 240 141.5t88 378.5q0 233 -87 368.5t-240.5 135.5t-241.5 -135.5t-88 -366.5zM373 1831h246l126 -281h-194
z" />
    <glyph glyph-name="Oacute" unicode="&#xd3;" horiz-adv-x="1310" 
d="M70 737q0 330 159.5 536t426 206t426 -206t159.5 -538q0 -336 -159.5 -548t-426.5 -212q-268 0 -426.5 212t-158.5 550zM326 737q0 -240 88 -381t241 -141q152 0 240 141.5t88 378.5q0 233 -87 368.5t-240.5 135.5t-241.5 -135.5t-88 -366.5zM543 1550l125 281h245
l-178 -281h-192z" />
    <glyph glyph-name="Ocircumflex" unicode="&#xd4;" horiz-adv-x="1310" 
d="M70 737q0 330 159.5 536t426 206t426 -206t159.5 -538q0 -336 -159.5 -548t-426.5 -212q-268 0 -426.5 212t-158.5 550zM326 737q0 -240 88 -381t241 -141q152 0 240 141.5t88 378.5q0 233 -87 368.5t-240.5 135.5t-241.5 -135.5t-88 -366.5zM381 1550l151 281h242
l151 -281h-194l-76 168h-4l-76 -168h-194z" />
    <glyph glyph-name="Otilde" unicode="&#xd5;" horiz-adv-x="1310" 
d="M70 737q0 330 159.5 536t426 206t426 -206t159.5 -538q0 -336 -159.5 -548t-426.5 -212q-268 0 -426.5 212t-158.5 550zM326 737q0 -240 88 -381t241 -141q152 0 240 141.5t88 378.5q0 233 -87 368.5t-240.5 135.5t-241.5 -135.5t-88 -366.5zM344 1552q0 283 184 283
q43 0 78 -20.5t53.5 -46t39 -46t40.5 -20.5q55 0 55 127h162q0 -137 -47 -210t-135 -73q-55 0 -95 34t-67 66.5t-51 32.5q-55 0 -55 -127h-162z" />
    <glyph glyph-name="Odieresis" unicode="&#xd6;" horiz-adv-x="1310" 
d="M70 737q0 330 159.5 536t426 206t426 -206t159.5 -538q0 -336 -159.5 -548t-426.5 -212q-268 0 -426.5 212t-158.5 550zM326 737q0 -240 88 -381t241 -141q152 0 240 141.5t88 378.5q0 233 -87 368.5t-240.5 135.5t-241.5 -135.5t-88 -366.5zM403 1591v240h182v-240h-182
zM719 1591v240h182v-240h-182z" />
    <glyph glyph-name="multiply" unicode="&#xd7;" 
d="M55 1032l156 131l289 -415l288 415l158 -131l-321 -459l317 -454l-156 -131l-286 409l-285 -409l-158 131l316 454z" />
    <glyph glyph-name="Oslash" unicode="&#xd8;" horiz-adv-x="1310" 
d="M70 737q0 330 158.5 536t426.5 206q162 0 285 -80l59 110l113 -59l-70 -131q199 -203 199 -584q0 -338 -159.5 -549t-426.5 -211q-174 0 -303 93l-65 -121l-113 59l78 148q-182 204 -182 583zM326 737q0 -207 65 -338l430 789q-70 51 -166 51q-156 0 -242.5 -135.5
t-86.5 -366.5zM471 283q76 -70 184 -70q156 0 242 141t86 381q0 219 -74 348z" />
    <glyph glyph-name="Ugrave" unicode="&#xd9;" horiz-adv-x="1171" 
d="M123 469v985h248v-983q0 -133 56 -198.5t158.5 -65.5t159 65.5t56.5 198.5v983h250v-985q0 -229 -126 -361.5t-337 -132.5q-213 0 -339 132.5t-126 361.5zM303 1831h246l126 -281h-194z" />
    <glyph glyph-name="Uacute" unicode="&#xda;" horiz-adv-x="1171" 
d="M123 469v985h248v-983q0 -133 56 -198.5t158.5 -65.5t159 65.5t56.5 198.5v983h250v-985q0 -229 -126 -361.5t-337 -132.5q-213 0 -339 132.5t-126 361.5zM475 1550l125 281h245l-178 -281h-192z" />
    <glyph glyph-name="Ucircumflex" unicode="&#xdb;" horiz-adv-x="1171" 
d="M123 469v985h248v-983q0 -133 56 -198.5t158.5 -65.5t159 65.5t56.5 198.5v983h250v-985q0 -229 -126 -361.5t-337 -132.5q-213 0 -339 132.5t-126 361.5zM314 1550l151 281h242l151 -281h-194l-76 168h-4l-76 -168h-194z" />
    <glyph glyph-name="Udieresis" unicode="&#xdc;" horiz-adv-x="1171" 
d="M123 469v985h248v-983q0 -133 56 -198.5t158.5 -65.5t159 65.5t56.5 198.5v983h250v-985q0 -229 -126 -361.5t-337 -132.5q-213 0 -339 132.5t-126 361.5zM336 1591v240h182v-240h-182zM652 1591v240h182v-240h-182z" />
    <glyph glyph-name="Yacute" unicode="&#xdd;" horiz-adv-x="989" 
d="M-2 1454h274l162 -426l58 -192h6q27 102 59 192l160 426h274l-373 -846v-608h-247v608zM385 1550l125 281h245l-178 -281h-192z" />
    <glyph glyph-name="Thorn" unicode="&#xde;" horiz-adv-x="1009" 
d="M131 0v1454h250v-235h164q190 0 310 -131.5t120 -342.5q0 -213 -120 -346t-310 -133h-164v-266h-250zM381 487h121q100 0 159.5 71t59.5 187q0 115 -60.5 183.5t-154.5 68.5h-125v-510z" />
    <glyph glyph-name="germandbls" unicode="&#xdf;" 
d="M111 0v1083q0 188 114.5 292t268.5 104q152 0 256 -99.5t104 -257.5q0 -78 -30.5 -145.5t-61.5 -117.5t-31 -89q0 -45 36 -92t78 -86t77.5 -114t35.5 -167q0 -152 -85 -238.5t-228 -86.5q-109 0 -186 53v213q68 -53 147 -53q53 0 83 29.5t30 84.5q0 57 -36 110.5
t-79 90.5t-79 99.5t-36 138.5q0 88 66 194.5t66 173.5q0 145 -125 146q-141 0 -142 -201v-1065h-243z" />
    <glyph glyph-name="agrave" unicode="&#xe0;" horiz-adv-x="882" 
d="M47 299q0 84 28.5 148.5t73 102.5t106.5 61.5t120.5 31.5t124.5 8h37v23q0 188 -146 188q-109 0 -221 -71l-66 186q51 39 140.5 65.5t177.5 26.5q174 0 267 -107.5t93 -308.5v-653h-217v68l4 77h-4q-39 -70 -104.5 -115.5t-145.5 -45.5q-115 0 -191.5 84t-76.5 231z
M156 1456h246l126 -281h-194zM272 317q0 -59 28 -98t79 -39q76 0 117 72t41 160v77h-37q-228 0 -228 -172z" />
    <glyph glyph-name="aacute" unicode="&#xe1;" horiz-adv-x="882" 
d="M47 299q0 84 28.5 148.5t73 102.5t106.5 61.5t120.5 31.5t124.5 8h37v23q0 188 -146 188q-109 0 -221 -71l-66 186q51 39 140.5 65.5t177.5 26.5q174 0 267 -107.5t93 -308.5v-653h-217v68l4 77h-4q-39 -70 -104.5 -115.5t-145.5 -45.5q-115 0 -191.5 84t-76.5 231z
M272 317q0 -59 28 -98t79 -39q76 0 117 72t41 160v77h-37q-228 0 -228 -172zM324 1175l125 281h245l-178 -281h-192z" />
    <glyph glyph-name="acircumflex" unicode="&#xe2;" horiz-adv-x="882" 
d="M47 299q0 84 28.5 148.5t73 102.5t106.5 61.5t120.5 31.5t124.5 8h37v23q0 188 -146 188q-109 0 -221 -71l-66 186q51 39 140.5 65.5t177.5 26.5q174 0 267 -107.5t93 -308.5v-653h-217v68l4 77h-4q-39 -70 -104.5 -115.5t-145.5 -45.5q-115 0 -191.5 84t-76.5 231z
M162 1175l151 281h242l151 -281h-194l-76 168h-4l-76 -168h-194zM272 317q0 -59 28 -98t79 -39q76 0 117 72t41 160v77h-37q-228 0 -228 -172z" />
    <glyph glyph-name="atilde" unicode="&#xe3;" horiz-adv-x="882" 
d="M47 299q0 84 28.5 148.5t73 102.5t106.5 61.5t120.5 31.5t124.5 8h37v23q0 188 -146 188q-109 0 -221 -71l-66 186q51 39 140.5 65.5t177.5 26.5q174 0 267 -107.5t93 -308.5v-653h-217v68l4 77h-4q-39 -70 -104.5 -115.5t-145.5 -45.5q-115 0 -191.5 84t-76.5 231z
M125 1178q0 283 184 282q55 0 95 -33.5t66 -66.5t50 -33q55 0 55 127h162q0 -137 -47 -210t-135 -73q-43 0 -78 20.5t-53 46.5t-40 46.5t-42 20.5q-55 0 -55 -127h-162zM272 317q0 -59 28 -98t79 -39q76 0 117 72t41 160v77h-37q-228 0 -228 -172z" />
    <glyph glyph-name="adieresis" unicode="&#xe4;" horiz-adv-x="882" 
d="M47 299q0 84 28.5 148.5t73 102.5t106.5 61.5t120.5 31.5t124.5 8h37v23q0 188 -146 188q-109 0 -221 -71l-66 186q51 39 140.5 65.5t177.5 26.5q174 0 267 -107.5t93 -308.5v-653h-217v68l4 77h-4q-39 -70 -104.5 -115.5t-145.5 -45.5q-115 0 -191.5 84t-76.5 231z
M184 1216v240h182v-240h-182zM272 317q0 -59 28 -98t79 -39q76 0 117 72t41 160v77h-37q-228 0 -228 -172zM500 1216v240h182v-240h-182z" />
    <glyph glyph-name="aring" unicode="&#xe5;" horiz-adv-x="882" 
d="M47 299q0 84 28.5 148.5t73 102.5t106.5 61.5t120.5 31.5t124.5 8h37v23q0 188 -146 188q-109 0 -221 -71l-66 186q51 39 140.5 65.5t177.5 26.5q174 0 267 -107.5t93 -308.5v-653h-217v68l4 77h-4q-39 -70 -104.5 -115.5t-145.5 -45.5q-115 0 -191.5 84t-76.5 231z
M268 1311q0 76 50 119.5t116 43.5q68 0 117 -44t49 -119q0 -74 -49 -117t-117 -43q-66 0 -116 43t-50 117zM272 317q0 -59 28 -98t79 -39q76 0 117 72t41 160v77h-37q-228 0 -228 -172zM381 1311q0 -70 53 -70t53 70q0 74 -53 73.5t-53 -73.5z" />
    <glyph glyph-name="ae" unicode="&#xe6;" horiz-adv-x="1378" 
d="M45 297q0 98 43 170t114.5 108.5t145.5 52t154 15.5h33v31q0 186 -142 186q-113 0 -225 -67l-66 184q137 92 318 92q174 0 254 -139h4q98 139 264 139q186 0 279.5 -134t93.5 -341q0 -53 -6 -115h-533q10 -150 72.5 -219.5t159.5 -69.5q127 0 235 93l62 -187
q-55 -57 -143.5 -89t-180.5 -32q-229 0 -338 205h-6q-47 -100 -125 -152.5t-172 -52.5q-129 0 -212 87.5t-83 234.5zM268 317q0 -63 30 -104t83 -41q78 0 118 78t40 168v61h-31q-240 0 -240 -162zM774 643h305q-4 231 -141 231q-144 0 -164 -231z" />
    <glyph glyph-name="ccedilla" unicode="&#xe7;" horiz-adv-x="880" 
d="M59 520q0 238 128 393.5t356 155.5q172 0 280 -100l-86 -187q-74 74 -182 74q-117 0 -182.5 -93t-65.5 -239q0 -143 64.5 -239.5t185.5 -96.5q125 0 223 95l66 -191q-104 -104 -287 -115l-8 -67q51 -8 85 -48t34 -110q0 -88 -54.5 -133t-128.5 -45q-47 0 -104 14v138
q25 -16 70 -17q68 0 67 62q0 63 -76 63l-34 -4l34 152q-180 29 -282.5 177t-102.5 361z" />
    <glyph glyph-name="egrave" unicode="&#xe8;" horiz-adv-x="911" 
d="M61 532q0 238 110 387.5t304 149.5q186 0 278.5 -135t92.5 -344q0 -31 -4 -113h-533q8 -145 71.5 -216t156.5 -71q139 0 237 93l64 -187q-125 -121 -330 -121q-217 0 -332 156.5t-115 400.5zM195 1456h246l126 -281h-194zM305 641h305q0 231 -139 231q-141 0 -166 -231z
" />
    <glyph glyph-name="eacute" unicode="&#xe9;" horiz-adv-x="911" 
d="M61 532q0 238 110 387.5t304 149.5q186 0 278.5 -135t92.5 -344q0 -31 -4 -113h-533q8 -145 71.5 -216t156.5 -71q139 0 237 93l64 -187q-125 -121 -330 -121q-217 0 -332 156.5t-115 400.5zM305 641h305q0 231 -139 231q-141 0 -166 -231zM365 1175l125 281h245
l-178 -281h-192z" />
    <glyph glyph-name="ecircumflex" unicode="&#xea;" horiz-adv-x="911" 
d="M61 532q0 238 110 387.5t304 149.5q186 0 278.5 -135t92.5 -344q0 -31 -4 -113h-533q8 -145 71.5 -216t156.5 -71q139 0 237 93l64 -187q-125 -121 -330 -121q-217 0 -332 156.5t-115 400.5zM201 1175l151 281h242l151 -281h-194l-76 168h-4l-76 -168h-194zM305 641h305
q0 231 -139 231q-141 0 -166 -231z" />
    <glyph glyph-name="edieresis" unicode="&#xeb;" horiz-adv-x="911" 
d="M61 532q0 238 110 387.5t304 149.5q186 0 278.5 -135t92.5 -344q0 -31 -4 -113h-533q8 -145 71.5 -216t156.5 -71q139 0 237 93l64 -187q-125 -121 -330 -121q-217 0 -332 156.5t-115 400.5zM223 1216v240h182v-240h-182zM305 641h305q0 231 -139 231q-141 0 -166 -231z
M539 1216v240h182v-240h-182z" />
    <glyph glyph-name="igrave" unicode="&#xec;" horiz-adv-x="464" 
d="M-47 1456h246l126 -281h-194zM111 0v1044h243v-1044h-243z" />
    <glyph glyph-name="iacute" unicode="&#xed;" horiz-adv-x="464" 
d="M111 0v1044h243v-1044h-243zM125 1175l125 281h245l-178 -281h-192z" />
    <glyph glyph-name="icircumflex" unicode="&#xee;" horiz-adv-x="464" 
d="M-37 1175l151 281h242l151 -281h-194l-76 168h-4l-76 -168h-194zM111 0v1044h243v-1044h-243z" />
    <glyph glyph-name="idieresis" unicode="&#xef;" horiz-adv-x="464" 
d="M-15 1216v240h182v-240h-182zM111 0v1044h243v-1044h-243zM301 1216v240h182v-240h-182z" />
    <glyph glyph-name="eth" unicode="&#xf0;" horiz-adv-x="940" 
d="M61 477q0 195 99.5 332t249.5 137q53 0 97 -18.5t60 -34.5l17 -19l6 5q-37 133 -148 229l-313 -168l4 160l184 96q-88 61 -188 94l66 199q203 -53 356 -174l254 137l-4 -160l-144 -84q102 -111 159.5 -272.5t57.5 -341.5q0 -164 -39.5 -299t-134 -227.5t-233.5 -92.5
q-190 0 -298 150.5t-108 351.5zM309 469q0 -113 38 -197t114 -84q84 0 126 100.5t42 219.5q0 117 -40 182.5t-112 65.5q-82 0 -125 -81t-43 -206z" />
    <glyph glyph-name="ntilde" unicode="&#xf1;" horiz-adv-x="1003" 
d="M111 0v1044h235v-69l-4 -66h4q84 160 277 160q129 0 203.5 -86t74.5 -258v-725h-246v682q0 156 -110 156q-88 0 -139.5 -86t-51.5 -183v-569h-243zM213 1178q0 283 184 282q55 0 95 -33.5t66 -66.5t50 -33q55 0 56 127h161q0 -137 -47 -210t-135 -73q-43 0 -78 20.5
t-53 46.5t-39.5 46.5t-42.5 20.5q-55 0 -55 -127h-162z" />
    <glyph glyph-name="ograve" unicode="&#xf2;" horiz-adv-x="1026" 
d="M59 522.5q0 241.5 126 394t329 152.5t328 -152.5t125 -394t-125 -394.5t-328 -153t-329 153t-126 394.5zM232 1456h246l126 -281h-194zM307 522.5q0 -151.5 54.5 -243t152.5 -91.5q96 0 150.5 91.5t54.5 243t-54.5 242.5t-150.5 91q-98 0 -152.5 -91t-54.5 -242.5z" />
    <glyph glyph-name="oacute" unicode="&#xf3;" horiz-adv-x="1026" 
d="M59 522.5q0 241.5 126 394t329 152.5t328 -152.5t125 -394t-125 -394.5t-328 -153t-329 153t-126 394.5zM307 522.5q0 -151.5 54.5 -243t152.5 -91.5q96 0 150.5 91.5t54.5 243t-54.5 242.5t-150.5 91q-98 0 -152.5 -91t-54.5 -242.5zM404 1175l125 281h245l-178 -281
h-192z" />
    <glyph glyph-name="ocircumflex" unicode="&#xf4;" horiz-adv-x="1026" 
d="M59 522.5q0 241.5 126 394t329 152.5t328 -152.5t125 -394t-125 -394.5t-328 -153t-329 153t-126 394.5zM242 1175l151 281h242l151 -281h-194l-76 168h-4l-76 -168h-194zM307 522.5q0 -151.5 54.5 -243t152.5 -91.5q96 0 150.5 91.5t54.5 243t-54.5 242.5t-150.5 91
q-98 0 -152.5 -91t-54.5 -242.5z" />
    <glyph glyph-name="otilde" unicode="&#xf5;" horiz-adv-x="1026" 
d="M59 522.5q0 241.5 126 394t329 152.5t328 -152.5t125 -394t-125 -394.5t-328 -153t-329 153t-126 394.5zM203 1178q0 283 184 282q55 0 95 -33.5t65.5 -66.5t50.5 -33q55 0 55 127h162q0 -137 -47 -210t-135 -73q-43 0 -78 20.5t-53.5 46.5t-40 46.5t-41.5 20.5
q-55 0 -55 -127h-162zM307 522.5q0 -151.5 54.5 -243t152.5 -91.5q96 0 150.5 91.5t54.5 243t-54.5 242.5t-150.5 91q-98 0 -152.5 -91t-54.5 -242.5z" />
    <glyph glyph-name="odieresis" unicode="&#xf6;" horiz-adv-x="1026" 
d="M59 522.5q0 241.5 126 394t329 152.5t328 -152.5t125 -394t-125 -394.5t-328 -153t-329 153t-126 394.5zM264 1216v240h182v-240h-182zM307 522.5q0 -151.5 54.5 -243t152.5 -91.5q96 0 150.5 91.5t54.5 243t-54.5 242.5t-150.5 91q-98 0 -152.5 -91t-54.5 -242.5z
M580 1216v240h182v-240h-182z" />
    <glyph glyph-name="divide" unicode="&#xf7;" 
d="M76 483v203h848v-203h-848zM393 53v223h211v-223h-211zM393 895v223h211v-223h-211z" />
    <glyph glyph-name="oslash" unicode="&#xf8;" horiz-adv-x="1026" 
d="M59 522q0 242 126 394.5t329 152.5q115 0 203 -51l55 106l98 -59l-61 -115q158 -158 158 -428q0 -242 -125 -394.5t-328 -152.5q-121 0 -207 50l-61 -115l-96 59l65 123q-156 151 -156 430zM307 522q0 -125 37 -198l266 501q-39 31 -96 31q-98 0 -152.5 -91t-54.5 -243z
M414 217q43 -29 100 -29q98 0 151.5 91t53.5 243q0 127 -35 203z" />
    <glyph glyph-name="ugrave" unicode="&#xf9;" horiz-adv-x="997" 
d="M102 319v725h246v-682q0 -156 111 -155q82 0 133 85t51 181v571h244v-1044h-236v70l4 65h-4q-88 -160 -268 -160q-131 0 -206 86t-75 258zM215 1456h246l126 -281h-194z" />
    <glyph glyph-name="uacute" unicode="&#xfa;" horiz-adv-x="997" 
d="M102 319v725h246v-682q0 -156 111 -155q82 0 133 85t51 181v571h244v-1044h-236v70l4 65h-4q-88 -160 -268 -160q-131 0 -206 86t-75 258zM385 1175l125 281h245l-178 -281h-192z" />
    <glyph glyph-name="ucircumflex" unicode="&#xfb;" horiz-adv-x="997" 
d="M102 319v725h246v-682q0 -156 111 -155q82 0 133 85t51 181v571h244v-1044h-236v70l4 65h-4q-88 -160 -268 -160q-131 0 -206 86t-75 258zM224 1175l151 281h242l151 -281h-194l-76 168h-4l-76 -168h-194z" />
    <glyph glyph-name="udieresis" unicode="&#xfc;" horiz-adv-x="997" 
d="M102 319v725h246v-682q0 -156 111 -155q82 0 133 85t51 181v571h244v-1044h-236v70l4 65h-4q-88 -160 -268 -160q-131 0 -206 86t-75 258zM246 1216v240h182v-240h-182zM562 1216v240h182v-240h-182z" />
    <glyph glyph-name="yacute" unicode="&#xfd;" horiz-adv-x="897" 
d="M8 1044h262l158 -600l21 -141h8q10 84 20 137l137 604h256l-335 -1189q-41 -141 -130.5 -213t-193.5 -72q-47 0 -91 14.5t-67 26.5l-20 14l67 187q47 -35 97 -35q39 0 75.5 36.5t59.5 108.5l22 84zM342 1175l125 281h245l-178 -281h-192z" />
    <glyph glyph-name="thorn" unicode="&#xfe;" horiz-adv-x="1007" 
d="M111 -410v1864h243v-448l-4 -72h4q27 63 88.5 99t141.5 36q172 0 266 -148.5t94 -394.5q0 -252 -100.5 -401.5t-268.5 -149.5q-158 0 -221 121h-4q4 -37 4 -88v-418h-243zM348 522q0 -334 172 -334q86 0 132 86t46 244t-44 246t-130 88q-176 0 -176 -330z" />
    <glyph glyph-name="ydieresis" unicode="&#xff;" horiz-adv-x="897" 
d="M8 1044h262l158 -600l21 -141h8q10 84 20 137l137 604h256l-335 -1189q-41 -141 -130.5 -213t-193.5 -72q-47 0 -91 14.5t-67 26.5l-20 14l67 187q47 -35 97 -35q39 0 75.5 36.5t59.5 108.5l22 84zM203 1216v240h182v-240h-182zM519 1216v240h182v-240h-182z" />
    <glyph glyph-name="OE" unicode="&#x152;" horiz-adv-x="1540" 
d="M70 737q0 330 158.5 536t424.5 206q92 0 160 -25h645v-221h-444v-389h356v-221h-356v-402h467v-221h-668q-68 -25 -160 -25q-266 0 -424.5 212t-158.5 550zM326 737q0 -246 88 -391t239 -145q70 0 113 18v1018q-55 16 -113 16q-152 0 -239.5 -139t-87.5 -377z" />
    <glyph glyph-name="oe" unicode="&#x153;" horiz-adv-x="1572" 
d="M59 522.5q0 241.5 126 394t333 152.5t316 -195h4q94 195 305 195q180 0 272 -136t92 -345l-4 -111h-532q8 -147 75.5 -217t167.5 -70q133 0 222 93l63 -187q-51 -57 -138 -89t-179 -32q-238 0 -338 201h-4q-111 -201 -324 -201q-205 0 -331 153t-126 394.5zM307 524
q0 -152 54.5 -244t152.5 -92t151.5 92.5t53.5 241.5q0 152 -53.5 243t-151.5 91t-152.5 -91t-54.5 -241zM969 641h305q-4 233 -141 233q-144 0 -164 -233z" />
    <glyph glyph-name="Ydieresis" unicode="&#x178;" horiz-adv-x="989" 
d="M-2 1454h274l162 -426l58 -192h6q27 102 59 192l160 426h274l-373 -846v-608h-247v608zM246 1591v240h182v-240h-182zM562 1591v240h182v-240h-182z" />
    <glyph glyph-name="circumflex" unicode="&#x2c6;" horiz-adv-x="770" 
d="M113 1550l151 281h242l151 -281h-194l-76 168h-4l-76 -168h-194z" />
    <glyph glyph-name="tilde" unicode="&#x2dc;" horiz-adv-x="770" 
d="M78 1552q0 283 184 283q43 0 78 -20.5t53.5 -46t39 -46t40.5 -20.5q55 0 55 127h162q0 -137 -47 -210t-135 -73q-55 0 -95 34t-67 66.5t-51 32.5q-55 0 -55 -127h-162z" />
    <glyph glyph-name="uni2000" unicode="&#x2000;" horiz-adv-x="924" 
 />
    <glyph glyph-name="uni2001" unicode="&#x2001;" horiz-adv-x="1849" 
 />
    <glyph glyph-name="uni2002" unicode="&#x2002;" horiz-adv-x="924" 
 />
    <glyph glyph-name="uni2003" unicode="&#x2003;" horiz-adv-x="1849" 
 />
    <glyph glyph-name="uni2004" unicode="&#x2004;" horiz-adv-x="616" 
 />
    <glyph glyph-name="uni2005" unicode="&#x2005;" horiz-adv-x="462" 
 />
    <glyph glyph-name="uni2006" unicode="&#x2006;" horiz-adv-x="308" 
 />
    <glyph glyph-name="uni2007" unicode="&#x2007;" horiz-adv-x="308" 
 />
    <glyph glyph-name="uni2008" unicode="&#x2008;" horiz-adv-x="231" 
 />
    <glyph glyph-name="uni2009" unicode="&#x2009;" horiz-adv-x="369" 
 />
    <glyph glyph-name="uni200A" unicode="&#x200a;" horiz-adv-x="102" 
 />
    <glyph glyph-name="uni2010" unicode="&#x2010;" horiz-adv-x="698" 
d="M106 471v229h486v-229h-486z" />
    <glyph glyph-name="uni2011" unicode="&#x2011;" horiz-adv-x="698" 
d="M106 471v229h486v-229h-486z" />
    <glyph glyph-name="figuredash" unicode="&#x2012;" horiz-adv-x="698" 
d="M106 471v229h486v-229h-486z" />
    <glyph glyph-name="endash" unicode="&#x2013;" horiz-adv-x="1130" 
d="M109 483v203h913v-203h-913z" />
    <glyph glyph-name="emdash" unicode="&#x2014;" horiz-adv-x="1439" 
d="M104 483v203h1231v-203h-1231z" />
    <glyph glyph-name="quoteleft" unicode="&#x2018;" horiz-adv-x="450" 
d="M80 1030l133 449h166l-80 -449h-219z" />
    <glyph glyph-name="quoteright" unicode="&#x2019;" horiz-adv-x="438" 
d="M88 1032l82 449h217l-129 -449h-170z" />
    <glyph glyph-name="quotesinglbase" unicode="&#x201a;" horiz-adv-x="454" 
d="M59 -182l82 448h211l-131 -448h-162z" />
    <glyph glyph-name="quotedblleft" unicode="&#x201c;" horiz-adv-x="743" 
d="M80 1030l133 449h168l-80 -449h-221zM373 1030l131 449h170l-82 -449h-219z" />
    <glyph glyph-name="quotedblright" unicode="&#x201d;" horiz-adv-x="731" 
d="M88 1032l82 449h219l-131 -449h-170zM381 1032l80 449h219l-131 -449h-168z" />
    <glyph glyph-name="quotedblbase" unicode="&#x201e;" horiz-adv-x="737" 
d="M59 -182l82 448h211l-131 -448h-162zM344 -182l80 448h213l-131 -448h-162z" />
    <glyph glyph-name="bullet" unicode="&#x2022;" horiz-adv-x="841" 
d="M139 596q0 145 78 243.5t203 98.5t203.5 -98.5t78.5 -243.5t-78.5 -243.5t-203.5 -98.5t-203 98.5t-78 243.5z" />
    <glyph glyph-name="ellipsis" unicode="&#x2026;" horiz-adv-x="1413" 
d="M106 0v260h228v-260h-228zM593 0v260h228v-260h-228zM1081 0v260h228v-260h-228z" />
    <glyph glyph-name="uni202F" unicode="&#x202f;" horiz-adv-x="369" 
 />
    <glyph glyph-name="guilsinglleft" unicode="&#x2039;" horiz-adv-x="626" 
d="M66 578l258 421h227l-258 -421l258 -420h-227z" />
    <glyph glyph-name="guilsinglright" unicode="&#x203a;" horiz-adv-x="626" 
d="M76 158l258 420l-258 421h227l258 -421l-258 -420h-227z" />
    <glyph glyph-name="uni205F" unicode="&#x205f;" horiz-adv-x="462" 
 />
    <glyph glyph-name="Euro" unicode="&#x20ac;" horiz-adv-x="935" 
d="M35 518v135h104q-6 86 2 166h-106v135h123q49 236 194.5 380.5t362.5 144.5q80 0 166 -23l-50 -237q-57 20 -131 20q-100 0 -177 -76t-107 -209h375l-25 -135h-365q-4 -111 5 -166h331l-22 -135h-281q74 -299 295 -299q61 0 123 21l43 -236q-72 -29 -188 -29
q-211 0 -356.5 148.5t-192.5 394.5h-123z" />
    <glyph glyph-name="trademark" unicode="&#x2122;" horiz-adv-x="1632" 
d="M104 1286v168h635v-168h-225v-739h-182v739h-228zM770 547l55 907h191l108 -418l17 -100h8q8 68 16 100l111 418h188l54 -907h-181l-20 465l6 118h-10l-99 -417h-139l-98 417h-10q6 -88 6 -118l-23 -465h-180z" />
    <glyph glyph-name="uni25FC" unicode="&#x25fc;" horiz-adv-x="1044" 
d="M0 0v1044h1044v-1044h-1044z" />
    </font>
</defs>
</svg>
